<?xml version="1.0" standalone="no"?>
<!DOCTYPE svg PUBLIC "-//W3C//DTD SVG 1.1//EN" "http://www.w3.org/Graphics/SVG/1.1/DTD/svg11.dtd" >
<svg xmlns="http://www.w3.org/2000/svg" xmlns:xlink="http://www.w3.org/1999/xlink" version="1.1">
<metadata>
Created by FontForge 20170731 at Mon Aug 10 12:23:45 2009
 By Aleksey,,,
 Copyright (c) 2004 by Radim Pesko. All rights reserved-
</metadata>
<defs>
<font id="Correspondance" horiz-adv-x="667" >
  <font-face 
    font-family="Correspondance"
    font-weight="400"
    font-stretch="normal"
    units-per-em="1000"
    panose-1="2 0 0 0 0 0 0 0 0 0"
    ascent="800"
    descent="-200"
    x-height="720"
    cap-height="720"
    bbox="-17 -221 997 921"
    underline-thickness="50"
    underline-position="-150"
    unicode-range="U+0020-FB02"
  />
<missing-glyph horiz-adv-x="260" 
 />
    <glyph glyph-name="dcaron" unicode="&#xab;&#xae;" horiz-adv-x="657" 
d="M227 609v-492h77q84 0 117 72q26 57 26 177q0 243 -137 243h-83zM65 0v720h254q294 0 295 -357q1 -189 -91 -285q-75 -78 -188 -78h-270zM213 762l-87 120h105l58 -63l58 63h105l-87 -120h-152z" />
    <glyph glyph-name="Dcroat" unicode="&#xab;&#xb1;" horiz-adv-x="679" 
d="M80 0v301h-57v98h57v321h267q299 0 300 -357q1 -189 -92 -285q-77 -78 -192 -78h-283zM246 301v-184h83q86 0 119 72q26 56 26 177q0 243 -139 243h-89v-210h123v-98h-123z" />
    <glyph glyph-name=".notdef" horiz-adv-x="260" 
 />
    <glyph glyph-name=".null" horiz-adv-x="0" 
 />
    <glyph glyph-name="nonmarkingreturn" horiz-adv-x="333" 
 />
    <glyph glyph-name="space" unicode=" " horiz-adv-x="260" 
 />
    <glyph glyph-name="exclam" unicode="!" horiz-adv-x="324" 
d="M109 234l-32 486h171l-28 -486h-111zM244 140v-140h-160v140h160z" />
    <glyph glyph-name="quotedbl" unicode="&#x22;" horiz-adv-x="313" 
d="M141 720l-8 -223h-83l-18 223h109zM290 720l-21 -223h-81l-8 223h110z" />
    <glyph glyph-name="numbersign" unicode="#" horiz-adv-x="648" 
d="M241 310h125l32 122h-125zM211 193l-51 -193h-110l51 193h-84v117h115l32 122h-92v117h123l45 171h109l-45 -171h125l45 171h109l-45 -171h90v-117h-121l-32 -122h98v-117h-128l-51 -193h-110l51 193h-124z" />
    <glyph glyph-name="dollar" unicode="$" horiz-adv-x="601" 
d="M343 790v-57q211 -15 205 -195l-1 -23l-157 -1l1 14q4 63 -48 83v-181q14 -7 52 -24q33 -15 46 -22q131 -68 130 -183q-1 -92 -62 -149t-166 -65v-62h-72v62q-118 8 -175 67q-55 56 -47 151l2 25l163 1l-1 -19q-5 -80 58 -99v193l-71 35q-147 70 -145 194q0 81 57 134
q59 54 159 63v58h72zM343 271v-157q61 15 61 75q0 48 -61 82zM271 468v143q-55 -17 -55 -69q-1 -41 55 -74z" />
    <glyph glyph-name="percent" unicode="%" horiz-adv-x="816" 
d="M650 736l-429 -736h-97l430 736h96zM67 687q47 49 122 49q76 0 122 -50t46 -132q0 -87 -45 -137q-45 -51 -123 -51q-79 0 -124 51q-45 50 -45 137q0 82 47 133zM189 662q-59 0 -59 -109t59 -109t59 109t-59 109zM457 305q47 49 122 49q76 0 122 -50t46 -132
q0 -87 -45 -137q-45 -51 -123 -51q-79 0 -124 51q-45 50 -45 137q0 82 47 133zM579 280q-59 0 -59 -109t59 -109t59 109t-59 109z" />
    <glyph glyph-name="ampersand" unicode="&#x26;" horiz-adv-x="754" 
d="M686 447q16 -177 -77 -299l143 -148h-190l-47 52q-80 -68 -217 -68q-115 0 -185 57q-71 58 -72 158q0 88 46 144q35 43 94 75q-84 73 -84 154q0 55 36 98q55 66 178 66q118 0 171 -60q36 -42 36 -100q0 -103 -134 -181l129 -135q35 71 20 187h153zM380 574q0 28 -19 46
q-19 19 -50 19q-32 0 -51 -18t-19 -45q0 -44 68 -104q71 53 71 102zM263 326q-68 -27 -68 -107q0 -45 31 -76q33 -35 85 -35q70 0 112 46z" />
    <glyph glyph-name="quotesingle" unicode="'" horiz-adv-x="192" 
d="M160 720l-20 -223h-92l-17 223h129z" />
    <glyph glyph-name="parenleft" unicode="(" horiz-adv-x="278" 
d="M254 750q-85 -202 -86 -422q-2 -215 100 -442h-118q-120 220 -120 433q0 201 108 431h116z" />
    <glyph glyph-name="parenright" unicode=")" horiz-adv-x="278" 
d="M140 750q108 -230 108 -431q0 -213 -120 -433h-118q102 227 100 442q-1 220 -86 422h116z" />
    <glyph glyph-name="asterisk" unicode="*" horiz-adv-x="417" 
d="M27 487v103l124 -20l-79 98l89 52l46 -116l45 116l89 -51l-79 -99l124 20v-103l-123 20l78 -98l-89 -51l-45 116l-46 -116l-89 52l78 97z" />
    <glyph glyph-name="plus" unicode="+" horiz-adv-x="500" 
d="M308 139h-121v147h-152v113h152v147h121v-147h151v-113h-151v-147z" />
    <glyph glyph-name="comma" unicode="," horiz-adv-x="290" 
d="M246 155l-82 -236h-120l37 236h165z" />
    <glyph glyph-name="hyphen" unicode="-" horiz-adv-x="417" 
d="M376 399v-117h-336v117h336z" />
    <glyph glyph-name="period" unicode="." horiz-adv-x="290" 
d="M225 155v-155h-160v155h160z" />
    <glyph glyph-name="slash" unicode="/" horiz-adv-x="433" 
d="M401 720l-256 -736h-118l256 736h118z" />
    <glyph glyph-name="zero" unicode="0" horiz-adv-x="619" 
d="M42 365q2 371 269 371q270 0 270 -370q0 -382 -270 -382t-269 381zM241 569q-27 -59 -28 -203q0 -135 21 -196q23 -64 77 -64q52 0 75 63q22 62 22 197q0 144 -26 203q-23 50 -71 50q-47 0 -70 -50z" />
    <glyph glyph-name="one" unicode="1" horiz-adv-x="436" 
d="M23 593q91 39 170 127h148v-720h-160l1 537q-43 -47 -159 -90v146z" />
    <glyph glyph-name="two" unicode="2" horiz-adv-x="562" 
d="M33 497q-2 239 256 239q121 0 186 -62q61 -57 58 -153q-2 -73 -53 -142q-73 -99 -270 -242q142 0 176 1q120 3 147 9v-147h-495v147l133 118q59 51 136 140q54 62 55 109q2 40 -18 64q-22 26 -62 26q-89 0 -83 -107h-166z" />
    <glyph glyph-name="three" unicode="3" horiz-adv-x="569" 
d="M197 197q0 -29 17 -52q22 -29 65 -30q40 -1 64 21q25 23 25 63q0 71 -57 94q-34 14 -115 14v123q78 0 111 14q54 22 54 91q0 35 -22 57q-22 20 -56 20q-74 0 -76 -79h-165q3 74 41 122q65 81 200 81q128 0 192 -64q53 -53 53 -133t-53 -127q-36 -32 -83 -39
q63 -13 104 -62q41 -50 41 -113q0 -97 -66 -155q-69 -60 -188 -59q-121 0 -185 53q-72 59 -69 160h168z" />
    <glyph glyph-name="four" unicode="4" horiz-adv-x="585" 
d="M25 155v144l294 421h160v-441h86v-124h-86v-155h-160v155h-294zM149 278h177v211q0 5 2 24q2 23 2 32z" />
    <glyph glyph-name="five" unicode="5" horiz-adv-x="576" 
d="M200 179q0 -20 20 -43q26 -31 70 -31q100 0 100 128q0 124 -96 124q-72 0 -91 -66l-155 4l21 425h441v-120h-296l-12 -173q33 50 128 50q100 0 161 -60q64 -63 64 -172t-64 -180q-71 -81 -199 -81q-147 0 -214 79q-41 47 -43 116h165z" />
    <glyph glyph-name="six" unicode="6" horiz-adv-x="577" 
d="M72 118q-36 79 -36 198q0 420 288 420q211 0 211 -190h-158q-4 69 -72 69q-100 0 -105 -198q57 53 139 53q84 0 142 -55q66 -64 66 -175t-62 -180q-69 -76 -198 -76q-154 0 -215 134zM383 230q0 124 -83 124q-91 0 -91 -127q0 -126 86 -126q88 0 88 129z" />
    <glyph glyph-name="seven" unicode="7" horiz-adv-x="529" 
d="M20 720h484v-134l-248 -586h-182l251 548l24 40h-329v132z" />
    <glyph glyph-name="eight" unicode="8" horiz-adv-x="579" 
d="M549 196q-1 -102 -74 -159q-71 -55 -188 -53q-118 2 -186 56q-70 56 -69 156q2 132 128 181q-40 11 -71 46q-42 46 -41 112q2 88 61 141q65 60 185 60q109 0 176 -52q68 -53 67 -144q0 -65 -33 -109q-31 -41 -84 -53q131 -51 129 -182zM378 532q0 88 -85 88
q-83 0 -83 -88q0 -92 82 -92q86 0 86 92zM388 206q0 48 -27 76q-27 27 -70 27q-44 0 -71 -30q-26 -29 -26 -75q0 -105 98 -105q96 0 96 107z" />
    <glyph glyph-name="nine" unicode="9" horiz-adv-x="579" 
d="M542 404q0 -278 -117 -370q-64 -50 -172 -50q-214 0 -214 189h161q1 -69 73 -69q100 0 105 203q-49 -58 -141 -58q-84 0 -141 55q-66 63 -66 175q0 111 62 180q68 77 196 77q254 0 254 -332zM192 489q-1 -59 22 -91q23 -31 63 -31q92 0 92 125q0 127 -87 127t-90 -130z
" />
    <glyph glyph-name="colon" unicode=":" horiz-adv-x="307" 
d="M230 155v-155h-160v155h160zM230 497v-155h-160v155h160z" />
    <glyph glyph-name="semicolon" unicode=";" horiz-adv-x="276" 
d="M232 155l-82 -229h-120l37 229h165zM230 497v-155h-160v155h160z" />
    <glyph glyph-name="less" unicode="&#x3c;" horiz-adv-x="584" 
d="M534 143v-143l-496 212v134l496 212v-141l-323 -124l-49 -15l49 -14z" />
    <glyph glyph-name="equal" unicode="=" horiz-adv-x="497" 
d="M458 497v-113h-419v113h419zM458 300v-113h-419v113h419z" />
    <glyph glyph-name="greater" unicode="&#x3e;" horiz-adv-x="584" 
d="M361 264l49 14l-49 15l-323 124v141l496 -212v-134l-496 -212v143z" />
    <glyph glyph-name="question" unicode="?" horiz-adv-x="472" 
d="M325 355q-55 -47 -55 -98v-23h-130v28q0 66 37 111l34 41q71 86 71 128q0 40 -28 64q-28 22 -71 22q-63 0 -144 -28v119q100 18 175 18q230 0 230 -185q0 -92 -119 -197zM284 140v-140h-160v140h160z" />
    <glyph glyph-name="at" unicode="@" horiz-adv-x="779" 
d="M721 89q-141 -106 -309 -106q-175 -1 -279 101q-104 103 -91 266q14 181 126 285q109 101 279 101q143 0 225 -78q84 -80 84 -222q0 -109 -56 -186q-57 -81 -143 -81q-49 0 -75 36q-13 17 -13 47q-56 -83 -144 -83q-60 0 -95 39q-38 42 -33 112q6 93 62 166q60 78 142 78
q78 0 99 -61l18 45h101l-59 -213q-13 -50 -15 -61q-7 -43 32 -43q40 0 73 58q34 61 36 148q2 125 -70 185q-63 54 -176 53q-131 -1 -219 -80q-97 -88 -109 -245q-11 -143 78 -226q83 -78 223 -78q145 0 270 95zM361 247q50 0 71 57q34 95 36 141q1 47 -41 47q-36 0 -70 -54
q-32 -52 -41 -118q-11 -73 45 -73z" />
    <glyph glyph-name="A" unicode="A" horiz-adv-x="675" 
d="M175 0h-169l235 720h225l202 -720h-173l-33 139h-247zM432 261l-74 313l-6 30h-2l-7 -30l-95 -313h184z" />
    <glyph glyph-name="B" unicode="B" horiz-adv-x="646" 
d="M322 614h-90v-184h84q107 0 107 91q0 93 -101 93zM66 0v720h310q93 0 153 -46q63 -49 63 -132q0 -140 -150 -160q69 -7 115 -49q53 -49 52 -128q-1 -105 -83 -159q-70 -46 -179 -46h-281zM318 319h-84v-207h88q114 0 114 102q0 105 -118 105z" />
    <glyph glyph-name="C" unicode="C" horiz-adv-x="638" 
d="M608 225q-22 -241 -275 -241q-153 0 -224 88q-74 91 -74 293q0 371 303 371q248 0 269 -239h-180q3 116 -93 116q-57 0 -84 -45q-35 -58 -35 -203q0 -142 28 -201q27 -56 90 -56q44 0 70 29q27 32 26 88h179z" />
    <glyph glyph-name="D" unicode="D" horiz-adv-x="666" 
d="M229 609v-492h83q86 0 119 72q26 56 26 177q0 243 -139 243h-89zM63 0v720h267q299 0 300 -357q1 -189 -93 -285q-76 -78 -191 -78h-283z" />
    <glyph glyph-name="E" unicode="E" horiz-adv-x="553" 
d="M229 123h289v-123h-455v720h442v-113h-276v-173h265v-117h-265v-194z" />
    <glyph glyph-name="F" unicode="F" horiz-adv-x="527" 
d="M63 0v720h434v-113h-268v-173h259v-117h-259v-317h-166z" />
    <glyph glyph-name="G" unicode="G" horiz-adv-x="646" 
d="M324 278v121h272q-6 -270 10 -369q-28 -5 -53 -13q-100 -33 -199 -33q-317 -4 -314 379q3 373 303 373q137 0 203 -70q57 -61 50 -158h-167q5 112 -88 111q-57 -1 -86 -41q-37 -49 -44 -171q-16 -308 158 -301q45 2 73 14q-7 65 -6 158h-112z" />
    <glyph glyph-name="H" unicode="H" horiz-adv-x="673" 
d="M232 0h-166v720h166v-293h209v293h166v-720h-166v309h-209v-309z" />
    <glyph glyph-name="I" unicode="I" horiz-adv-x="306" 
d="M236 720v-720h-166v720h166z" />
    <glyph glyph-name="J" unicode="J" horiz-adv-x="533" 
d="M16 266l158 -2q-3 -48 -3 -76q2 -79 71 -79q35 0 55 23q18 22 18 55l1 533h166v-514q0 -108 -68 -166q-64 -56 -179 -56q-100 0 -164 56q-66 58 -62 152q2 39 7 74z" />
    <glyph glyph-name="K" unicode="K" horiz-adv-x="624" 
d="M228 0h-165v720h165v-310l204 310h185l-240 -334l257 -386h-193l-213 341v-341z" />
    <glyph glyph-name="L" unicode="L" horiz-adv-x="493" 
d="M229 123h259v-123h-425v720h166v-597z" />
    <glyph glyph-name="M" unicode="M" horiz-adv-x="953" 
d="M891 720v-720h-157l3 611l-8 -40l-160 -571h-187l-158 571l-8 40l3 -611h-156v720h276l129 -519l7 -44h2l7 44l128 519h279z" />
    <glyph glyph-name="N" unicode="N" horiz-adv-x="731" 
d="M510 720h156v-720h-232l-219 587l2 -38l5 -549h-158v720h243l211 -561l-2 40z" />
    <glyph glyph-name="O" unicode="O" 
d="M631 364q0 -205 -79 -297q-72 -83 -217 -83q-144 0 -216 82q-82 93 -81 298q1 372 298 372q293 0 295 -372zM211 366q0 -137 30 -199t96 -62q63 0 93 62t30 199q0 253 -124 253q-125 0 -125 -253z" />
    <glyph glyph-name="P" unicode="P" horiz-adv-x="623" 
d="M229 609v-226h79q108 0 110 109q2 117 -108 117h-81zM229 261v-261h-166v720h304q106 0 170 -67q59 -62 59 -154q0 -238 -295 -238h-72z" />
    <glyph glyph-name="Q" unicode="Q" horiz-adv-x="716" 
d="M732 -8q-38 25 -175 15q-33 -2 -114 -11q-69 -7 -100 -8q-144 -6 -223 89q-82 98 -81 292q1 367 296 367q290 0 290 -367q0 -169 -77 -264q125 49 184 26v-139zM212 372q0 -133 28 -195q30 -64 95 -64q121 0 121 259q0 248 -121 248q-123 0 -123 -248z" />
    <glyph glyph-name="R" unicode="R" horiz-adv-x="646" 
d="M229 609v-206h84q112 0 112 103t-106 103h-90zM303 286h-74v-286h-166v720h315q96 0 154 -44q64 -49 64 -140q0 -147 -150 -179q136 -12 144 -178q7 -152 26 -179h-177q-20 19 -20 179q0 107 -116 107z" />
    <glyph glyph-name="S" unicode="S" horiz-adv-x="601" 
d="M449 387q134 -60 132 -186q0 -99 -74 -157q-73 -59 -197 -59q-139 0 -212 60q-70 59 -62 160l2 25l170 1l-1 -19q-3 -49 26 -76q27 -26 74 -26q43 0 69 22t26 57q0 55 -83 94l-140 63q-71 33 -101 68q-38 45 -38 118q1 88 70 145q72 58 189 58q125 0 193 -51
q70 -52 66 -146l-1 -23l-169 -1l1 14q3 43 -24 67q-25 21 -67 21q-39 0 -63 -19q-26 -20 -26 -53q0 -49 86 -88z" />
    <glyph glyph-name="T" unicode="T" horiz-adv-x="567" 
d="M206 601h-206v119h567v-119h-195v-601h-166v601z" />
    <glyph glyph-name="U" unicode="U" horiz-adv-x="654" 
d="M56 720h166v-504q0 -47 27 -76q29 -29 78 -29t77 30q27 28 27 75v504h167v-480q0 -121 -69 -188q-71 -68 -202 -68q-271 0 -271 256v480z" />
    <glyph glyph-name="V" unicode="V" horiz-adv-x="649" 
d="M647 720l-215 -720h-215l-215 720h174l139 -536l8 -40h2l8 40l141 536h173z" />
    <glyph glyph-name="W" unicode="W" horiz-adv-x="898" 
d="M452 589h-2l-5 -40l-82 -549h-210l-151 720h165l84 -520l5 -40h3l4 40l82 520h208l82 -520l4 -40h3l5 40l84 520h165l-151 -720h-210z" />
    <glyph glyph-name="X" unicode="X" horiz-adv-x="653" 
d="M445 720h187l-200 -341l219 -379h-189l-136 259l-137 -259h-187l217 377l-201 343h187l121 -239z" />
    <glyph glyph-name="Y" unicode="Y" horiz-adv-x="621" 
d="M616 720l-223 -470v-250h-166v250l-222 470h179l116 -312l10 -40h2l10 40l115 312h179z" />
    <glyph glyph-name="Z" unicode="Z" horiz-adv-x="568" 
d="M34 720h505v-125l-335 -471l340 2v-126h-517v132l335 468l-328 -2v122z" />
    <glyph glyph-name="bracketleft" unicode="[" horiz-adv-x="315" 
d="M52 828h254v-92h-122v-752h122v-93h-254v937z" />
    <glyph glyph-name="backslash" unicode="\" horiz-adv-x="433" 
d="M145 720l256 -736h-118l-256 736h118z" />
    <glyph glyph-name="bracketright" unicode="]" horiz-adv-x="315" 
d="M289 -109h-254v93h122v752h-122v92h254v-937z" />
    <glyph glyph-name="asciicircum" unicode="^" horiz-adv-x="567" 
d="M533 416h-146l-105 210l-104 -210h-145l184 304h132z" />
    <glyph glyph-name="underscore" unicode="_" horiz-adv-x="417" 
d="M417 79v-79h-417v79h417z" />
    <glyph glyph-name="grave" unicode="`" horiz-adv-x="531" 
d="M340 762h-107l-120 120h163z" />
    <glyph glyph-name="a" unicode="a" horiz-adv-x="670" 
d="M175 0h-165l230 720h220l198 -720h-169l-33 139h-242zM427 261l-72 313l-6 30h-2l-7 -30l-93 -313h180z" />
    <glyph glyph-name="b" unicode="b" horiz-adv-x="640" 
d="M316 614h-88v-184h82q105 0 105 91q0 93 -99 93zM65 0v720h304q91 0 150 -46q62 -49 62 -132q0 -140 -147 -160q68 -7 113 -49q52 -49 51 -128q-1 -104 -82 -159q-69 -46 -175 -46h-276zM312 319h-82v-207h86q112 0 112 102q0 105 -116 105z" />
    <glyph glyph-name="c" unicode="c" horiz-adv-x="632" 
d="M600 225q-20 -241 -269 -241q-150 0 -219 88q-73 91 -73 293q0 371 297 371q244 0 263 -239h-176q3 116 -91 116q-56 0 -82 -45q-35 -58 -35 -203q0 -143 27 -201q26 -56 89 -56q43 0 68 29q27 32 26 88h175z" />
    <glyph glyph-name="d" unicode="d" horiz-adv-x="657" 
d="M227 609v-492h77q84 0 117 72q26 57 26 177q0 243 -137 243h-83zM65 0v720h254q294 0 295 -357q1 -189 -91 -285q-75 -78 -188 -78h-270z" />
    <glyph glyph-name="e" unicode="e" horiz-adv-x="549" 
d="M225 123h283v-123h-445v720h433v-113h-271v-173h260v-117h-260v-194z" />
    <glyph glyph-name="f" unicode="f" horiz-adv-x="522" 
d="M64 0v720h426v-113h-263v-173h254v-117h-254v-317h-163z" />
    <glyph glyph-name="g" unicode="g" horiz-adv-x="637" 
d="M319 278v121h266q-5 -285 8 -369q-21 -4 -50 -13q-97 -33 -195 -33q-310 -4 -307 379q3 373 297 373q134 0 199 -70q55 -61 48 -158h-163q5 113 -86 111q-56 -1 -85 -41q-36 -49 -43 -171q-16 -308 155 -301q47 2 71 14q-7 44 -5 158h-110z" />
    <glyph glyph-name="h" unicode="h" horiz-adv-x="663" 
d="M229 0h-163v720h163v-293h205v293h163v-720h-163v309h-205v-309z" />
    <glyph glyph-name="i" unicode="i" horiz-adv-x="302" 
d="M232 720v-720h-162v720h162z" />
    <glyph glyph-name="j" unicode="j" horiz-adv-x="529" 
d="M17 266l154 -2q-3 -48 -3 -76q2 -79 70 -79q35 0 54 23q18 22 18 55l1 533h162v-514q0 -108 -66 -166q-64 -56 -176 -56q-98 0 -160 56q-65 58 -61 152q2 39 7 74z" />
    <glyph glyph-name="k" unicode="k" horiz-adv-x="612" 
d="M224 0h-161v720h161v-309l196 309h182l-233 -334l249 -386h-190l-204 341v-341z" />
    <glyph glyph-name="l" unicode="l" horiz-adv-x="487" 
d="M227 123h254v-123h-417v720h163v-597z" />
    <glyph glyph-name="m" unicode="m" horiz-adv-x="942" 
d="M871 720v-720h-154l3 611l-8 -40l-152 -571h-183l-150 571l-8 40l3 -611h-153v720h266l126 -519l7 -44h2l7 44l125 519h269z" />
    <glyph glyph-name="n" unicode="n" horiz-adv-x="721" 
d="M503 720h152v-720h-226l-215 587l2 -38l5 -549h-155v720h238l207 -561l-2 40z" />
    <glyph glyph-name="o" unicode="o" horiz-adv-x="662" 
d="M621 364q0 -204 -78 -297q-70 -83 -212 -83q-141 0 -212 82q-80 93 -79 298q1 372 292 372q287 0 289 -372zM209 366q0 -137 30 -199q29 -62 94 -62q62 0 90 62q30 62 30 199q0 253 -121 253q-123 0 -123 -253z" />
    <glyph glyph-name="p" unicode="p" horiz-adv-x="618" 
d="M227 609v-226h77q106 0 108 109q2 117 -106 117h-79zM227 261v-261h-163v720h298q104 0 167 -67q58 -62 58 -154q0 -238 -289 -238h-71z" />
    <glyph glyph-name="q" unicode="q" horiz-adv-x="699" 
d="M700 -11q-32 17 -363 -1q-140 -8 -217 89q-79 99 -78 292q1 367 290 367q284 0 284 -367q0 -170 -75 -264q103 45 159 18v-134zM211 372q0 -133 28 -195q29 -64 93 -64q119 0 119 259q0 248 -119 248q-121 0 -121 -248z" />
    <glyph glyph-name="r" unicode="r" horiz-adv-x="641" 
d="M227 609v-206h83q109 0 109 103t-104 103h-88zM300 286h-73v-286h-162v720h308q95 0 152 -44q62 -49 62 -140q0 -146 -149 -179q135 -12 143 -178q7 -151 25 -179h-172q-20 19 -20 179q0 107 -114 107z" />
    <glyph glyph-name="s" unicode="s" horiz-adv-x="597" 
d="M442 387q130 -59 129 -186q-1 -99 -72 -157q-72 -59 -193 -59q-137 0 -208 60q-69 58 -61 160l2 25l167 1l-1 -19q-3 -49 25 -76q26 -26 73 -26q41 0 67 22t26 57q0 55 -81 94l-138 63q-70 33 -99 68q-38 45 -37 118q0 88 68 145q70 58 186 58q122 0 189 -51
q68 -52 65 -146l-1 -23l-166 -1l1 14q2 43 -24 67q-25 21 -65 21q-38 0 -62 -19q-25 -20 -25 -53q-1 -48 84 -88z" />
    <glyph glyph-name="t" unicode="t" horiz-adv-x="540" 
d="M192 601h-192v119h540v-119h-186v-601h-162v601z" />
    <glyph glyph-name="u" unicode="u" horiz-adv-x="645" 
d="M56 720h163v-504q0 -47 27 -76t76 -29q48 0 76 30q26 28 26 75v504h164v-480q0 -121 -68 -188q-69 -68 -198 -68q-266 0 -266 256v480z" />
    <glyph glyph-name="v" unicode="v" horiz-adv-x="634" 
d="M626 720l-204 -720h-211l-204 720h171l129 -536l8 -40h2l8 40l131 536h170z" />
    <glyph glyph-name="w" unicode="w" horiz-adv-x="887" 
d="M445 569h-2l-5 -40l-79 -529h-203l-147 720h160l82 -505l5 -40h3l4 40l78 505h204l78 -505l4 -40h3l5 40l82 505h160l-147 -720h-203z" />
    <glyph glyph-name="x" unicode="x" horiz-adv-x="645" 
d="M438 720h183l-196 -341l215 -379h-186l-133 259l-134 -259h-184l213 377l-197 343h183l119 -239z" />
    <glyph glyph-name="y" unicode="y" horiz-adv-x="610" 
d="M599 720l-214 -470v-250h-162v250l-213 470h175l109 -312l10 -40h2l10 40l108 312h175z" />
    <glyph glyph-name="z" unicode="z" horiz-adv-x="545" 
d="M36 720h478v-125l-319 -471l326 2v-126h-495v132l318 468l-308 -2v122z" />
    <glyph glyph-name="braceleft" unicode="{" horiz-adv-x="334" 
d="M85 351q147 -14 147 -183l-1 -57q-1 -61 10 -86q17 -41 72 -44v-82q-142 3 -189 69q-32 44 -28 147l2 58q0 57 -12 83q-22 45 -86 52v88q64 7 86 53q12 26 12 82l-2 58q-4 103 28 148q47 66 189 69v-82q-55 -3 -72 -44q-11 -26 -10 -87l1 -57q0 -169 -147 -183v-2z" />
    <glyph glyph-name="bar" unicode="|" horiz-adv-x="289" 
d="M194 720v-829h-98v829h98z" />
    <glyph glyph-name="braceright" unicode="}" horiz-adv-x="334" 
d="M228 353q-147 14 -147 183l1 57q1 61 -10 87q-17 41 -72 44v82q142 -3 189 -69q32 -45 28 -148l-2 -58q0 -56 12 -82q22 -46 86 -53v-88q-64 -7 -86 -52q-12 -26 -12 -83l2 -58q4 -103 -28 -147q-47 -66 -189 -69v82q55 3 72 44q11 25 10 86l-1 57q0 169 147 183v2z" />
    <glyph glyph-name="asciitilde" unicode="~" horiz-adv-x="546" 
d="M20 229q5 82 48 131q41 47 101 47q40 0 111 -30q71 -31 110 -31q55 0 55 53h82q-5 -70 -35 -116q-41 -61 -116 -61q-45 0 -109 31q-65 30 -110 30q-23 0 -39 -16q-14 -16 -16 -38h-82z" />
    <glyph glyph-name="uni00A0" unicode="&#xa0;" horiz-adv-x="260" 
 />
    <glyph glyph-name="exclamdown" unicode="&#xa1;" horiz-adv-x="324" 
d="M247 0h-170l31 486h111zM82 720h160v-140h-160v140z" />
    <glyph glyph-name="cent" unicode="&#xa2;" horiz-adv-x="638" 
d="M365 790v-55q212 -13 231 -238h-164q1 91 -67 111v-496q70 23 69 113h163q-19 -225 -232 -240v-60h-72v61q-248 25 -248 379q0 341 248 368v57h72zM293 114v491q-78 -31 -78 -240q0 -221 78 -251z" />
    <glyph glyph-name="sterling" unicode="&#xa3;" horiz-adv-x="594" 
d="M457 399v-75h-192v-197l281 2v-129h-505v127h65v197h-77v75h77v115q0 96 61 157q65 65 177 65q227 0 226 -224h-153q6 96 -77 96q-75 0 -75 -92v-117h192z" />
    <glyph glyph-name="currency" unicode="&#xa4;" horiz-adv-x="601" 
d="M106 607l48 -49q65 49 146 49q80 0 145 -49l49 49l51 -51l-49 -49q49 -65 49 -145q0 -79 -49 -146l49 -49l-51 -51l-49 49q-66 -48 -145 -48q-81 0 -145 48l-49 -49l-51 51l49 49q-49 65 -49 146q0 79 48 145l-48 49zM181 242q48 -48 119 -48q70 0 118 48t48 120
q0 71 -48 119t-118 48q-71 0 -119 -48t-48 -119q0 -72 48 -120z" />
    <glyph glyph-name="yen" unicode="&#xa5;" horiz-adv-x="621" 
d="M388 108v-108h-156v108h-186v71h186v71h-186v71h157l-183 399h172l108 -329l10 -40h2l10 40l107 329h172l-184 -399h160v-71h-189v-71h189v-71h-189z" />
    <glyph glyph-name="brokenbar" unicode="&#xa6;" horiz-adv-x="294" 
d="M194 720v-321h-98v321h98zM194 212v-321h-98v321h98z" />
    <glyph glyph-name="section" unicode="&#xa7;" horiz-adv-x="510" 
d="M341 303q3 47 -40 61l-27 9q-20 7 -33 11q-63 -22 -66 -72q-3 -46 41 -62q38 -14 61 -21q61 23 64 74zM473 46q0 -168 -223 -168q-75 0 -181 26v119q80 -36 145 -37q99 -3 99 58q0 42 -47 69q-9 5 -124 53q-105 44 -96 136q7 84 119 115q-118 61 -118 151q0 168 220 168
q84 0 174 -26l-2 -119q-68 34 -136 37q-97 3 -98 -58q-1 -40 45 -67q5 -3 122 -55q105 -47 99 -136q-7 -82 -114 -117q116 -63 116 -149z" />
    <glyph glyph-name="dieresis" unicode="&#xa8;" horiz-adv-x="562" 
d="M242 877v-115h-117v115h117zM437 877v-115h-116v115h116z" />
    <glyph glyph-name="copyright" unicode="&#xa9;" horiz-adv-x="803" 
d="M667 632q111 -107 111 -272q0 -162 -109 -270q-108 -106 -269 -106q-160 0 -268 106q-110 107 -110 270q0 165 111 272q109 104 267 104q160 0 267 -104zM179 590q-92 -90 -92 -229q0 -138 91 -229q89 -89 221 -89q133 0 223 90q91 92 91 228q0 138 -92 228
q-90 88 -222 88q-131 0 -220 -87zM548 282q-13 -142 -150 -142q-163 0 -163 224q0 107 47 165q43 53 119 53q134 0 147 -141h-97q1 69 -52 69q-32 0 -48 -27q-19 -34 -19 -119t15 -118t51 -33q56 0 54 69h96z" />
    <glyph glyph-name="ordfeminine" unicode="&#xaa;" horiz-adv-x="467" 
d="M301 417h-130l-21 -67h-110l136 370h137l115 -370h-110zM196 498h84l-37 148h-1l-4 -18z" />
    <glyph glyph-name="guillemotleft" unicode="&#xab;" horiz-adv-x="479" 
d="M37 278l102 187h117l-92 -164l-14 -23l14 -23l90 -164h-117zM220 278l101 187h117l-92 -164l-14 -23l14 -23l90 -164h-117z" />
    <glyph glyph-name="logicalnot" unicode="&#xac;" horiz-adv-x="562" 
d="M24 399h512v-302h-130v171h-382v131z" />
    <glyph glyph-name="uni00AD" unicode="&#xad;" horiz-adv-x="417" 
d="M376 399v-117h-336v117h336z" />
    <glyph glyph-name="registered" unicode="&#xae;" horiz-adv-x="802" 
d="M667 632q111 -107 111 -272q0 -162 -109 -270q-108 -106 -269 -106q-160 0 -268 106q-110 107 -110 270q0 165 111 272q109 104 267 104q160 0 267 -104zM179 590q-92 -90 -92 -229q0 -138 91 -229q89 -89 221 -89q133 0 223 90q91 92 91 228q0 138 -92 228
q-90 88 -222 88q-131 0 -220 -87zM343 509v-121h54q66 0 66 61q0 60 -63 60h-57zM391 320h-48v-169h-90v424h172q56 0 91 -27q39 -29 39 -82q0 -86 -85 -105q76 -7 82 -105q4 -87 17 -105h-96q-14 14 -14 105q0 64 -68 64z" />
    <glyph glyph-name="macron" unicode="&#xaf;" horiz-adv-x="572" 
d="M143 762v92h282v-92h-282z" />
    <glyph glyph-name="degree" unicode="&#xb0;" horiz-adv-x="341" 
d="M268 698q42 -39 42 -99t-42 -99q-40 -38 -99 -38t-99 38q-42 39 -42 99t42 99q40 38 99 38t99 -38zM114 657q-22 -23 -22 -58t22 -58q22 -22 55 -22t55 22q22 23 22 58t-22 58q-22 22 -55 22t-55 -22z" />
    <glyph glyph-name="plusminus" unicode="&#xb1;" horiz-adv-x="487" 
d="M459 0h-424v113h424v-113zM308 237h-121v147h-152v113h152v147h121v-147h151v-113h-151v-147z" />
    <glyph glyph-name="uni00B2" unicode="&#xb2;" horiz-adv-x="562" 
d="M131 590q0 141 156 141q69 0 107 -34q36 -33 36 -89q0 -51 -56 -97q-30 -24 -131 -82q156 0 188 8v-87h-297v81l65 48q125 93 126 124q0 49 -46 49q-44 0 -44 -48q0 -9 1 -14h-105z" />
    <glyph glyph-name="uni00B3" unicode="&#xb3;" horiz-adv-x="569" 
d="M226 456q0 -14 13 -26q15 -14 41 -14q55 0 55 42q0 37 -35 48q-20 6 -76 6v64q54 0 70 4q33 9 33 41q0 38 -49 38q-46 0 -46 -40h-106q5 40 25 65q38 46 127 46q79 0 120 -31q35 -28 35 -72q0 -41 -33 -64q-23 -16 -52 -19q39 -4 66 -28q28 -26 28 -62q0 -51 -43 -82
q-45 -32 -119 -32q-82 0 -116 28q-46 31 -46 88h108z" />
    <glyph glyph-name="acute" unicode="&#xb4;" horiz-adv-x="531" 
d="M257 882h163l-120 -120h-107z" />
    <glyph glyph-name="mu" unicode="&#xb5;" horiz-adv-x="389" 
d="M30 357l165 217l164 -217l-164 -218z" />
    <glyph glyph-name="mu" unicode="&#x3bc;" horiz-adv-x="389" 
d="M30 357l165 217l164 -217l-164 -218z" />
    <glyph glyph-name="paragraph" unicode="&#xb6;" horiz-adv-x="607" 
d="M524 619v-827h-121v827h-90v-827h-118v454q-85 0 -141 70q-54 67 -54 157q0 102 59 169q69 78 201 78h326v-101h-62z" />
    <glyph glyph-name="periodcentered" unicode="&#xb7;" horiz-adv-x="294" 
d="M228 453v-155h-160v155h160z" />
    <glyph glyph-name="cedilla" unicode="&#xb8;" horiz-adv-x="261" 
d="M56 -149q38 -19 68 -19q53 0 53 38q0 33 -42 33q-16 0 -39 -9l-22 26l45 86h56l-39 -66q18 5 35 5q34 0 57 -18q25 -20 25 -54q0 -49 -45 -72q-33 -18 -78 -18q-55 0 -94 21z" />
    <glyph glyph-name="uni00B9" unicode="&#xb9;" horiz-adv-x="436" 
d="M81 644q56 24 102 76h96v-370h-103l1 260q-29 -29 -96 -54v88z" />
    <glyph glyph-name="ordmasculine" unicode="&#xba;" horiz-adv-x="463" 
d="M107 677q48 53 127 53t128 -53q48 -54 48 -140q0 -92 -47 -144q-47 -53 -129 -53q-83 0 -130 53t-47 144q0 87 50 140zM234 653q-62 0 -62 -117q0 -114 62 -114t62 114q0 117 -62 117z" />
    <glyph glyph-name="guillemotright" unicode="&#xbb;" horiz-adv-x="479" 
d="M329 91h-117l90 164l14 23l-14 23l-92 164h117l102 -187zM147 91h-117l90 164l14 23l-14 23l-92 164h117l101 -187z" />
    <glyph glyph-name="onequarter" unicode="&#xbc;" horiz-adv-x="781" 
d="M61 644q56 24 102 76h96v-370h-103l1 260q-29 -29 -96 -54v88zM650 736l-432 -752h-97l433 752h96zM399 60v88l186 222h103v-234h55v-76h-55v-60h-103v60h-186zM483 136h107v98q0 22 1 33z" />
    <glyph glyph-name="onehalf" unicode="&#xbd;" horiz-adv-x="781" 
d="M61 644q56 24 102 76h96v-370h-103l1 260q-29 -29 -96 -54v88zM438 240q0 141 156 141q69 0 107 -34q36 -33 36 -89q0 -51 -56 -97q-30 -24 -131 -82q156 0 188 8v-87h-297v81l65 48q125 93 126 124q0 49 -46 49q-44 0 -44 -48q0 -9 1 -14h-105zM636 736l-432 -752h-97
l433 752h96z" />
    <glyph glyph-name="threequarters" unicode="&#xbe;" horiz-adv-x="781" 
d="M399 60v88l186 222h103v-234h55v-76h-55v-60h-103v60h-186zM483 136h107v98q0 22 1 33zM133 456q0 -14 13 -26q15 -14 41 -14q55 0 55 42q0 37 -35 48q-20 6 -76 6v64q54 0 70 4q33 9 33 41q0 38 -49 38q-46 0 -46 -40h-106q5 40 25 65q38 46 127 46q79 0 120 -31
q35 -28 35 -72q0 -41 -33 -64q-23 -16 -52 -19q39 -4 66 -28q28 -26 28 -62q0 -51 -43 -82q-45 -32 -119 -32q-82 0 -116 28q-46 31 -46 88h108zM673 736l-432 -752h-97l433 752h96z" />
    <glyph glyph-name="questiondown" unicode="&#xbf;" horiz-adv-x="472" 
d="M150 365q55 47 55 98v23h130v-28q0 -66 -37 -111l-34 -41q-71 -86 -71 -128q0 -40 29 -64q27 -22 70 -22q63 0 144 28v-119q-100 -18 -175 -18q-230 0 -230 185q0 92 119 197zM191 580v140h160v-140h-160z" />
    <glyph glyph-name="Agrave" unicode="&#xc0;" horiz-adv-x="675" 
d="M175 0h-169l235 720h225l202 -720h-173l-33 139h-247zM432 261l-74 313l-6 30h-2l-7 -30l-95 -313h184zM403 762h-107l-120 120h163z" />
    <glyph glyph-name="Aacute" unicode="&#xc1;" horiz-adv-x="675" 
d="M175 0h-169l235 720h225l202 -720h-173l-33 139h-247zM432 261l-74 313l-6 30h-2l-7 -30l-95 -313h184zM366 882h163l-120 -120h-107z" />
    <glyph glyph-name="Acircumflex" unicode="&#xc2;" horiz-adv-x="675" 
d="M175 0h-169l235 720h225l202 -720h-173l-33 139h-247zM432 261l-74 313l-6 30h-2l-7 -30l-95 -313h184zM294 762h-105l88 119h151l85 -119h-105l-56 62z" />
    <glyph glyph-name="Atilde" unicode="&#xc3;" horiz-adv-x="675" 
d="M175 0h-169l235 720h225l202 -720h-173l-33 139h-247zM432 261l-74 313l-6 30h-2l-7 -30l-95 -313h184zM183 765q5 57 37 90q30 33 74 33q25 0 70 -19q45 -20 62 -20q30 0 36 36h58q-3 -50 -29 -84q-29 -39 -76 -39q-28 0 -71 21t-57 21q-33 0 -45 -39h-59z" />
    <glyph glyph-name="Adieresis" unicode="&#xc4;" horiz-adv-x="675" 
d="M175 0h-169l235 720h225l202 -720h-173l-33 139h-247zM432 261l-74 313l-6 30h-2l-7 -30l-95 -313h184zM311 877v-115h-117v115h117zM506 877v-115h-116v115h116z" />
    <glyph glyph-name="Aring" unicode="&#xc5;" horiz-adv-x="675" 
d="M175 0h-169l235 720h225l202 -720h-173l-33 139h-247zM432 261l-74 313l-6 30h-2l-7 -30l-95 -313h184zM282 895q28 26 69 26t69 -26t28 -66t-28 -66t-69 -26t-69 26t-28 66t28 66zM322 799q12 -12 29 -12t29 12q13 12 13 30t-13 30q-12 12 -29 12t-29 -12
q-13 -12 -13 -30t13 -30z" />
    <glyph glyph-name="AE" unicode="&#xc6;" horiz-adv-x="951" 
d="M434 261l-64 343h-2l-7 -30l-111 -313h184zM458 139h-242l-45 -139h-166l257 720h632v-113h-381l42 -173h328v-117h-301l47 -194h278v-123h-421z" />
    <glyph glyph-name="Ccedilla" unicode="&#xc7;" horiz-adv-x="638" 
d="M227 -153q37 -17 68 -17q53 0 53 37q0 36 -42 36q-19 0 -39 -8l-22 25l35 67q-125 14 -184 102q-61 92 -61 276q0 371 303 371q248 0 269 -239h-180q3 116 -93 116q-57 0 -84 -45q-35 -58 -35 -203q0 -142 28 -201q27 -56 90 -56q44 0 70 29q27 32 26 88h179
q-22 -241 -275 -241l-26 -44q28 5 35 5q44 0 65 -25q17 -20 17 -46q0 -49 -45 -73q-33 -18 -78 -18q-55 0 -94 21z" />
    <glyph glyph-name="Egrave" unicode="&#xc8;" horiz-adv-x="553" 
d="M229 123h289v-123h-455v720h442v-113h-276v-173h265v-117h-265v-194zM349 762h-107l-120 120h163z" />
    <glyph glyph-name="Eacute" unicode="&#xc9;" horiz-adv-x="553" 
d="M229 123h289v-123h-455v720h442v-113h-276v-173h265v-117h-265v-194zM276 882h163l-120 -120h-107z" />
    <glyph glyph-name="Ecircumflex" unicode="&#xca;" horiz-adv-x="553" 
d="M229 123h289v-123h-455v720h442v-113h-276v-173h265v-117h-265v-194zM225 762h-105l88 119h151l85 -119h-105l-56 62z" />
    <glyph glyph-name="Edieresis" unicode="&#xcb;" horiz-adv-x="553" 
d="M229 123h289v-123h-455v720h442v-113h-276v-173h265v-117h-265v-194zM244 877v-115h-117v115h117zM439 877v-115h-116v115h116z" />
    <glyph glyph-name="Igrave" unicode="&#xcc;" horiz-adv-x="306" 
d="M236 720v-720h-166v720h166zM210 762h-107l-120 120h163z" />
    <glyph glyph-name="Iacute" unicode="&#xcd;" horiz-adv-x="306" 
d="M236 720v-720h-166v720h166zM162 882h163l-120 -120h-107z" />
    <glyph glyph-name="Icircumflex" unicode="&#xce;" horiz-adv-x="306" 
d="M236 720v-720h-166v720h166zM96 762h-105l88 119h151l85 -119h-105l-56 62z" />
    <glyph glyph-name="Idieresis" unicode="&#xcf;" horiz-adv-x="306" 
d="M236 720v-720h-166v720h166zM114 877v-115h-117v115h117zM309 877v-115h-116v115h116z" />
    <glyph glyph-name="Eth" unicode="&#xd0;" horiz-adv-x="679" 
d="M80 0v301h-57v98h57v321h267q299 0 300 -357q1 -189 -92 -285q-77 -78 -192 -78h-283zM246 301v-184h83q86 0 119 72q26 56 26 177q0 243 -139 243h-89v-210h123v-98h-123z" />
    <glyph glyph-name="Ntilde" unicode="&#xd1;" horiz-adv-x="731" 
d="M510 720h156v-720h-232l-219 587l2 -38l5 -549h-158v720h243l211 -561l-2 40zM204 765q5 57 37 90q30 33 74 33q25 0 70 -19q45 -20 62 -20q30 0 36 36h58q-3 -50 -29 -84q-29 -39 -76 -39q-28 0 -71 21t-57 21q-33 0 -45 -39h-59z" />
    <glyph glyph-name="Ograve" unicode="&#xd2;" 
d="M631 364q0 -205 -79 -297q-72 -83 -217 -83q-144 0 -216 82q-82 93 -81 298q1 372 298 372q293 0 295 -372zM211 366q0 -137 30 -199t96 -62q63 0 93 62t30 199q0 253 -124 253q-125 0 -125 -253zM391 762h-107l-120 120h163z" />
    <glyph glyph-name="Oacute" unicode="&#xd3;" 
d="M631 364q0 -205 -79 -297q-72 -83 -217 -83q-144 0 -216 82q-82 93 -81 298q1 372 298 372q293 0 295 -372zM211 366q0 -137 30 -199t96 -62q63 0 93 62t30 199q0 253 -124 253q-125 0 -125 -253zM343 882h163l-120 -120h-107z" />
    <glyph glyph-name="Ocircumflex" unicode="&#xd4;" 
d="M631 364q0 -205 -79 -297q-72 -83 -217 -83q-144 0 -216 82q-82 93 -81 298q1 372 298 372q293 0 295 -372zM211 366q0 -137 30 -199t96 -62q63 0 93 62t30 199q0 253 -124 253q-125 0 -125 -253zM277 762h-105l88 119h151l85 -119h-105l-56 62z" />
    <glyph glyph-name="Otilde" unicode="&#xd5;" 
d="M631 364q0 -205 -79 -297q-72 -83 -217 -83q-144 0 -216 82q-82 93 -81 298q1 372 298 372q293 0 295 -372zM211 366q0 -137 30 -199t96 -62q63 0 93 62t30 199q0 253 -124 253q-125 0 -125 -253zM164 765q5 57 36 90t75 33q25 0 70 -19q45 -20 62 -20q30 0 36 36h58
q-4 -50 -29 -84q-29 -39 -76 -39q-29 0 -72 21t-56 21q-34 0 -45 -39h-59z" />
    <glyph glyph-name="Odieresis" unicode="&#xd6;" 
d="M631 364q0 -205 -79 -297q-72 -83 -217 -83q-144 0 -216 82q-82 93 -81 298q1 372 298 372q293 0 295 -372zM211 366q0 -137 30 -199t96 -62q63 0 93 62t30 199q0 253 -124 253q-125 0 -125 -253zM295 877v-115h-117v115h117zM490 877v-115h-116v115h116z" />
    <glyph glyph-name="multiply" unicode="&#xd7;" horiz-adv-x="496" 
d="M174 324l-142 143l74 74l143 -143l142 142l74 -74l-142 -142l142 -142l-74 -74l-142 142l-143 -143l-74 74z" />
    <glyph glyph-name="Oslash" unicode="&#xd8;" 
d="M529 674l60 81l52 -36l-70 -94q58 -88 60 -261q1 -205 -79 -297q-72 -83 -217 -83q-126 0 -195 61l-59 -80l-51 37l68 91q-61 94 -60 271q2 372 298 372q123 0 193 -62zM211 366q0 -64 6 -112l217 292q-29 73 -98 73q-125 0 -125 -253zM454 467l-217 -292q31 -70 100 -70
q64 0 93 62q30 62 30 199q0 59 -6 101z" />
    <glyph glyph-name="Ugrave" unicode="&#xd9;" horiz-adv-x="654" 
d="M56 720h166v-504q0 -47 27 -76q29 -29 78 -29t77 30q27 28 27 75v504h167v-480q0 -121 -69 -188q-71 -68 -202 -68q-271 0 -271 256v480zM385 762h-107l-120 120h163z" />
    <glyph glyph-name="Uacute" unicode="&#xda;" horiz-adv-x="654" 
d="M56 720h166v-504q0 -47 27 -76q29 -29 78 -29t77 30q27 28 27 75v504h167v-480q0 -121 -69 -188q-71 -68 -202 -68q-271 0 -271 256v480zM340 882h163l-120 -120h-107z" />
    <glyph glyph-name="Ucircumflex" unicode="&#xdb;" horiz-adv-x="654" 
d="M56 720h166v-504q0 -47 27 -76q29 -29 78 -29t77 30q27 28 27 75v504h167v-480q0 -121 -69 -188q-71 -68 -202 -68q-271 0 -271 256v480zM270 762h-105l88 119h151l85 -119h-105l-56 62z" />
    <glyph glyph-name="Udieresis" unicode="&#xdc;" horiz-adv-x="654" 
d="M56 720h166v-504q0 -47 27 -76q29 -29 78 -29t77 30q27 28 27 75v504h167v-480q0 -121 -69 -188q-71 -68 -202 -68q-271 0 -271 256v480zM286 877v-115h-117v115h117zM481 877v-115h-116v115h116z" />
    <glyph glyph-name="Yacute" unicode="&#xdd;" horiz-adv-x="621" 
d="M616 720l-223 -470v-250h-166v250l-222 470h179l116 -312l10 -40h2l10 40l115 312h179zM322 882h163l-120 -120h-107z" />
    <glyph glyph-name="Thorn" unicode="&#xde;" horiz-adv-x="623" 
d="M229 497v-226h79q108 0 110 109q2 117 -108 117h-81zM364 608q108 0 172 -64q60 -60 60 -157q0 -238 -295 -238h-72v-149h-166v720h166v-112h135z" />
    <glyph glyph-name="germandbls" unicode="&#xdf;" 
d="M59 524q0 212 253 212q93 0 154 -34q72 -40 72 -115q0 -66 -90 -126q-35 -23 -35 -45q0 -24 48 -54l78 -50q100 -63 100 -153q0 -91 -63 -137q-54 -38 -145 -38q-191 0 -193 158h142q-2 -56 52 -56q55 0 55 58q0 53 -62 94l-69 46q-82 54 -82 118q0 54 75 116
q38 33 38 63q0 58 -75 58q-108 0 -108 -120v-519h-145v524z" />
    <glyph glyph-name="agrave" unicode="&#xe0;" horiz-adv-x="670" 
d="M175 0h-165l230 720h220l198 -720h-169l-33 139h-242zM427 261l-72 313l-6 30h-2l-7 -30l-93 -313h180zM402 762h-107l-120 120h163z" />
    <glyph glyph-name="aacute" unicode="&#xe1;" horiz-adv-x="670" 
d="M175 0h-165l230 720h220l198 -720h-169l-33 139h-242zM427 261l-72 313l-6 30h-2l-7 -30l-93 -313h180zM358 882h163l-120 -120h-107z" />
    <glyph glyph-name="acircumflex" unicode="&#xe2;" horiz-adv-x="670" 
d="M175 0h-165l230 720h220l198 -720h-169l-33 139h-242zM427 261l-72 313l-6 30h-2l-7 -30l-93 -313h180zM290 762h-105l88 119h151l85 -119h-105l-56 62z" />
    <glyph glyph-name="atilde" unicode="&#xe3;" horiz-adv-x="670" 
d="M175 0h-165l230 720h220l198 -720h-169l-33 139h-242zM427 261l-72 313l-6 30h-2l-7 -30l-93 -313h180zM182 765q5 57 37 90q30 33 74 33q25 0 70 -19q45 -20 62 -20q30 0 36 36h58q-3 -50 -29 -84q-29 -39 -76 -39q-28 0 -71 21t-57 21q-33 0 -45 -39h-59z" />
    <glyph glyph-name="adieresis" unicode="&#xe4;" horiz-adv-x="670" 
d="M175 0h-165l230 720h220l198 -720h-169l-33 139h-242zM427 261l-72 313l-6 30h-2l-7 -30l-93 -313h180zM308 877v-115h-117v115h117zM503 877v-115h-116v115h116z" />
    <glyph glyph-name="aring" unicode="&#xe5;" horiz-adv-x="670" 
d="M175 0h-165l230 720h220l198 -720h-169l-33 139h-242zM427 261l-72 313l-6 30h-2l-7 -30l-93 -313h180zM279 895q28 26 69 26t69 -26t28 -66t-28 -66t-69 -26t-69 26t-28 66t28 66zM319 799q12 -12 29 -12t29 12q13 12 13 30t-13 30q-12 12 -29 12t-29 -12
q-13 -12 -13 -30t13 -30z" />
    <glyph glyph-name="ae" unicode="&#xe6;" horiz-adv-x="926" 
d="M434 261l-64 343h-2l-7 -30l-111 -313h184zM458 139h-242l-45 -139h-166l257 720h599v-113h-348l42 -173h295v-117h-268l47 -194h245v-123h-388z" />
    <glyph glyph-name="ccedilla" unicode="&#xe7;" horiz-adv-x="632" 
d="M221 -153q37 -17 68 -17q53 0 53 37q0 36 -42 36q-19 0 -39 -8l-22 25l35 68q-120 14 -177 103q-58 91 -58 274q0 371 297 371q244 0 263 -239h-176q3 116 -91 116q-56 0 -82 -45q-35 -58 -35 -203q0 -143 27 -201q26 -56 89 -56q43 0 68 29q27 32 26 88h175
q-20 -241 -269 -241h-4l-26 -44q28 5 35 5q44 0 65 -25q17 -20 17 -46q0 -49 -45 -73q-33 -18 -78 -18q-55 0 -94 21z" />
    <glyph glyph-name="egrave" unicode="&#xe8;" horiz-adv-x="549" 
d="M225 123h283v-123h-445v720h433v-113h-271v-173h260v-117h-260v-194zM350 762h-107l-120 120h163z" />
    <glyph glyph-name="eacute" unicode="&#xe9;" horiz-adv-x="549" 
d="M225 123h283v-123h-445v720h433v-113h-271v-173h260v-117h-260v-194zM272 882h163l-120 -120h-107z" />
    <glyph glyph-name="ecircumflex" unicode="&#xea;" horiz-adv-x="549" 
d="M225 123h283v-123h-445v720h433v-113h-271v-173h260v-117h-260v-194zM221 762h-105l88 119h151l85 -119h-105l-56 62z" />
    <glyph glyph-name="edieresis" unicode="&#xeb;" horiz-adv-x="549" 
d="M225 123h283v-123h-445v720h433v-113h-271v-173h260v-117h-260v-194zM241 877v-115h-117v115h117zM436 877v-115h-116v115h116z" />
    <glyph glyph-name="igrave" unicode="&#xec;" horiz-adv-x="330" 
d="M248 720v-720h-166v720h166zM220 762h-107l-120 120h163z" />
    <glyph glyph-name="iacute" unicode="&#xed;" horiz-adv-x="330" 
d="M248 720v-720h-166v720h166zM172 882h163l-120 -120h-107z" />
    <glyph glyph-name="icircumflex" unicode="&#xee;" horiz-adv-x="330" 
d="M248 720v-720h-166v720h166zM108 762h-105l88 119h151l85 -119h-105l-56 62z" />
    <glyph glyph-name="idieresis" unicode="&#xef;" horiz-adv-x="330" 
d="M248 720v-720h-166v720h166zM126 877v-115h-117v115h117zM321 877v-115h-116v115h116z" />
    <glyph glyph-name="eth" unicode="&#xf0;" horiz-adv-x="663" 
d="M85 0v301h-56v98h56v321h242q139 0 216 -83q84 -91 85 -273q1 -189 -95 -285q-79 -79 -197 -79h-251zM248 301v-184h71q85 0 118 72q25 56 25 177q0 243 -137 243h-77v-210h110v-98h-110z" />
    <glyph glyph-name="ntilde" unicode="&#xf1;" horiz-adv-x="721" 
d="M503 720h152v-720h-226l-215 587l2 -38l5 -549h-155v720h238l207 -561l-2 40zM200 765q5 57 37 90q30 33 74 33q25 0 70 -19q45 -20 62 -20q30 0 36 36h58q-3 -50 -29 -84q-29 -39 -76 -39q-28 0 -71 21t-57 21q-33 0 -45 -39h-59z" />
    <glyph glyph-name="ograve" unicode="&#xf2;" horiz-adv-x="662" 
d="M621 364q0 -204 -78 -297q-70 -83 -212 -83q-141 0 -212 82q-80 93 -79 298q1 372 292 372q287 0 289 -372zM209 366q0 -137 30 -199q29 -62 94 -62q62 0 90 62q30 62 30 199q0 253 -121 253q-123 0 -123 -253zM391 762h-107l-120 120h163z" />
    <glyph glyph-name="oacute" unicode="&#xf3;" horiz-adv-x="662" 
d="M621 364q0 -204 -78 -297q-70 -83 -212 -83q-141 0 -212 82q-80 93 -79 298q1 372 292 372q287 0 289 -372zM209 366q0 -137 30 -199q29 -62 94 -62q62 0 90 62q30 62 30 199q0 253 -121 253q-123 0 -123 -253zM339 882h163l-120 -120h-107z" />
    <glyph glyph-name="ocircumflex" unicode="&#xf4;" horiz-adv-x="662" 
d="M621 364q0 -204 -78 -297q-70 -83 -212 -83q-141 0 -212 82q-80 93 -79 298q1 372 292 372q287 0 289 -372zM209 366q0 -137 30 -199q29 -62 94 -62q62 0 90 62q30 62 30 199q0 253 -121 253q-123 0 -123 -253zM275 762h-105l88 119h151l85 -119h-105l-56 62z" />
    <glyph glyph-name="otilde" unicode="&#xf5;" horiz-adv-x="662" 
d="M621 364q0 -204 -78 -297q-70 -83 -212 -83q-141 0 -212 82q-80 93 -79 298q1 372 292 372q287 0 289 -372zM209 366q0 -137 30 -199q29 -62 94 -62q62 0 90 62q30 62 30 199q0 253 -121 253q-123 0 -123 -253zM162 765q5 57 36 90t75 33q25 0 70 -19q45 -20 62 -20
q30 0 36 36h58q-4 -50 -29 -84q-29 -39 -76 -39q-29 0 -72 21t-56 21q-34 0 -45 -39h-59z" />
    <glyph glyph-name="odieresis" unicode="&#xf6;" horiz-adv-x="662" 
d="M621 364q0 -204 -78 -297q-70 -83 -212 -83q-141 0 -212 82q-80 93 -79 298q1 372 292 372q287 0 289 -372zM209 366q0 -137 30 -199q29 -62 94 -62q62 0 90 62q30 62 30 199q0 253 -121 253q-123 0 -123 -253zM293 877v-115h-117v115h117zM488 877v-115h-116v115h116z
" />
    <glyph glyph-name="divide" unicode="&#xf7;" horiz-adv-x="499" 
d="M459 302v-106h-424v106h424zM324 146v-146h-154v146h154zM324 498v-147h-154v147h154z" />
    <glyph glyph-name="oslash" unicode="&#xf8;" 
d="M529 674l60 81l52 -36l-70 -94q58 -88 60 -261q1 -205 -79 -297q-72 -83 -217 -83q-126 0 -195 61l-59 -80l-51 37l68 91q-61 94 -60 271q2 372 298 372q123 0 193 -62zM211 366q0 -64 6 -112l217 292q-29 73 -98 73q-125 0 -125 -253zM454 467l-217 -292q31 -70 100 -70
q64 0 93 62q30 62 30 199q0 59 -6 101z" />
    <glyph glyph-name="ugrave" unicode="&#xf9;" horiz-adv-x="645" 
d="M56 720h163v-504q0 -47 27 -76t76 -29q48 0 76 30q26 28 26 75v504h164v-480q0 -121 -68 -188q-69 -68 -198 -68q-266 0 -266 256v480zM386 762h-107l-120 120h163z" />
    <glyph glyph-name="uacute" unicode="&#xfa;" horiz-adv-x="645" 
d="M56 720h163v-504q0 -47 27 -76t76 -29q48 0 76 30q26 28 26 75v504h164v-480q0 -121 -68 -188q-69 -68 -198 -68q-266 0 -266 256v480zM330 882h163l-120 -120h-107z" />
    <glyph glyph-name="ucircumflex" unicode="&#xfb;" horiz-adv-x="645" 
d="M56 720h163v-504q0 -47 27 -76t76 -29q48 0 76 30q26 28 26 75v504h164v-480q0 -121 -68 -188q-69 -68 -198 -68q-266 0 -266 256v480zM265 762h-105l88 119h151l85 -119h-105l-56 62z" />
    <glyph glyph-name="udieresis" unicode="&#xfc;" horiz-adv-x="645" 
d="M56 720h163v-504q0 -47 27 -76t76 -29q48 0 76 30q26 28 26 75v504h164v-480q0 -121 -68 -188q-69 -68 -198 -68q-266 0 -266 256v480zM282 877v-115h-117v115h117zM477 877v-115h-116v115h116z" />
    <glyph glyph-name="yacute" unicode="&#xfd;" horiz-adv-x="610" 
d="M599 720l-214 -470v-250h-162v250l-213 470h175l109 -312l10 -40h2l10 40l108 312h175zM312 882h163l-120 -120h-107z" />
    <glyph glyph-name="thorn" unicode="&#xfe;" horiz-adv-x="614" 
d="M227 497v-226h73q110 0 112 109q2 117 -110 117h-75zM356 608q108 0 171 -64q59 -60 59 -157q0 -238 -293 -238h-66v-149h-164v720h164v-112h129z" />
    <glyph glyph-name="ydieresis" unicode="&#xff;" horiz-adv-x="610" 
d="M599 720l-214 -470v-250h-162v250l-213 470h175l109 -312l10 -40h2l10 40l108 312h175zM266 877v-115h-117v115h117zM461 877v-115h-116v115h116z" />
    <glyph glyph-name="Amacron" unicode="&#x100;" horiz-adv-x="675" 
d="M175 0h-169l235 720h225l202 -720h-173l-33 139h-247zM432 261l-74 313l-6 30h-2l-7 -30l-95 -313h184zM211 762v92h282v-92h-282z" />
    <glyph glyph-name="amacron" unicode="&#x101;" horiz-adv-x="670" 
d="M175 0h-165l230 720h220l198 -720h-169l-33 139h-242zM427 261l-72 313l-6 30h-2l-7 -30l-93 -313h180zM208 762v92h282v-92h-282z" />
    <glyph glyph-name="Abreve" unicode="&#x102;" horiz-adv-x="675" 
d="M175 0h-169l235 720h225l202 -720h-173l-33 139h-247zM432 261l-74 313l-6 30h-2l-7 -30l-95 -313h184zM248 793q-36 34 -41 93h90q7 -51 58 -51t58 51h90q-5 -58 -42 -93q-40 -36 -106 -36q-67 0 -107 36z" />
    <glyph glyph-name="abreve" unicode="&#x103;" horiz-adv-x="670" 
d="M175 0h-165l230 720h220l198 -720h-169l-33 139h-242zM427 261l-72 313l-6 30h-2l-7 -30l-93 -313h180zM241 793q-36 34 -41 93h90q7 -51 58 -51t58 51h90q-5 -58 -42 -93q-40 -36 -106 -36q-67 0 -107 36z" />
    <glyph glyph-name="Aogonek" unicode="&#x104;" horiz-adv-x="675" 
d="M704 -196q-52 -25 -103 -25q-54 0 -89 28q-38 29 -38 76q0 71 78 117h-57l-33 139h-247l-40 -139h-169l235 720h225l202 -720q-79 -43 -79 -86q0 -32 35 -32q20 0 50 12zM432 261l-74 313l-6 30h-2l-7 -30l-95 -313h184z" />
    <glyph glyph-name="aogonek" unicode="&#x105;" horiz-adv-x="670" 
d="M694 -196q-52 -25 -103 -25q-54 0 -89 28q-38 29 -38 76q0 71 78 117h-53l-33 139h-242l-39 -139h-165l230 720h220l198 -720q-79 -43 -79 -86q0 -32 35 -32q20 0 50 12zM427 261l-72 313l-6 30h-2l-7 -30l-93 -313h180z" />
    <glyph glyph-name="Cacute" unicode="&#x106;" horiz-adv-x="638" 
d="M608 225q-22 -241 -275 -241q-153 0 -224 88q-74 91 -74 293q0 371 303 371q248 0 269 -239h-180q3 116 -93 116q-57 0 -84 -45q-35 -58 -35 -203q0 -142 28 -201q27 -56 90 -56q44 0 70 29q27 32 26 88h179zM347 882h163l-120 -120h-107z" />
    <glyph glyph-name="cacute" unicode="&#x107;" horiz-adv-x="632" 
d="M600 225q-20 -241 -269 -241q-150 0 -219 88q-73 91 -73 293q0 371 297 371q244 0 263 -239h-176q3 116 -91 116q-56 0 -82 -45q-35 -58 -35 -203q0 -143 27 -201q26 -56 89 -56q43 0 68 29q27 32 26 88h175zM347 882h163l-120 -120h-107z" />
    <glyph glyph-name="Ccaron" unicode="&#x10c;" horiz-adv-x="638" 
d="M608 225q-22 -241 -275 -241q-153 0 -224 88q-74 91 -74 293q0 371 303 371q248 0 269 -239h-180q3 116 -93 116q-57 0 -84 -45q-35 -58 -35 -203q0 -142 28 -201q27 -56 90 -56q44 0 70 29q27 32 26 88h179zM258 762l-87 120h105l58 -63l58 63h105l-87 -120h-152z" />
    <glyph glyph-name="ccaron" unicode="&#x10d;" horiz-adv-x="632" 
d="M600 225q-20 -241 -269 -241q-150 0 -219 88q-73 91 -73 293q0 371 297 371q244 0 263 -239h-176q3 116 -91 116q-56 0 -82 -45q-35 -58 -35 -203q0 -143 27 -201q26 -56 89 -56q43 0 68 29q27 32 26 88h175zM255 762l-87 120h105l58 -63l58 63h105l-87 -120h-152z" />
    <glyph glyph-name="Dcaron" unicode="&#x10e;" horiz-adv-x="666" 
d="M229 609v-492h83q86 0 119 72q26 56 26 177q0 243 -139 243h-89zM63 0v720h267q299 0 300 -357q1 -189 -93 -285q-76 -78 -191 -78h-283zM213 762l-87 120h105l58 -63l58 63h105l-87 -120h-152z" />
    <glyph glyph-name="dcroat" unicode="&#x111;" horiz-adv-x="657" 
d="M85 0v301h-56v98h56v321h242q139 0 216 -83q84 -91 85 -273q1 -189 -95 -285q-79 -79 -197 -79h-251zM248 301v-184h71q85 0 118 72q25 56 25 177q0 243 -137 243h-77v-210h110v-98h-110z" />
    <glyph glyph-name="Emacron" unicode="&#x112;" horiz-adv-x="553" 
d="M229 123h289v-123h-455v720h442v-113h-276v-173h265v-117h-265v-194zM147 762v92h282v-92h-282z" />
    <glyph glyph-name="emacron" unicode="&#x113;" horiz-adv-x="549" 
d="M225 123h283v-123h-445v720h433v-113h-271v-173h260v-117h-260v-194zM137 762v92h282v-92h-282z" />
    <glyph glyph-name="Edotaccent" unicode="&#x116;" horiz-adv-x="553" 
d="M229 123h289v-123h-455v720h442v-113h-276v-173h265v-117h-265v-194zM352 881v-119h-126v119h126z" />
    <glyph glyph-name="edotaccent" unicode="&#x117;" horiz-adv-x="549" 
d="M225 123h283v-123h-445v720h433v-113h-271v-173h260v-117h-260v-194zM347 881v-119h-126v119h126z" />
    <glyph glyph-name="Eogonek" unicode="&#x118;" horiz-adv-x="553" 
d="M554 -196q-52 -25 -103 -25q-54 0 -89 28q-38 29 -38 76q0 71 78 117h-339v720h442v-113h-276v-173h265v-117h-265v-194h289v-123q-79 -43 -79 -86q0 -32 35 -32q20 0 50 12z" />
    <glyph glyph-name="eogonek" unicode="&#x119;" horiz-adv-x="549" 
d="M544 -196q-52 -25 -103 -25q-54 0 -89 28q-38 29 -38 76q0 71 78 117h-329v720h433v-113h-271v-173h260v-117h-260v-194h283v-123q-79 -43 -79 -86q0 -32 35 -32q20 0 50 12z" />
    <glyph glyph-name="Ecaron" unicode="&#x11a;" horiz-adv-x="553" 
d="M229 123h289v-123h-455v720h442v-113h-276v-173h265v-117h-265v-194zM212 762l-87 120h105l58 -63l58 63h105l-87 -120h-152z" />
    <glyph glyph-name="ecaron" unicode="&#x11b;" horiz-adv-x="549" 
d="M225 123h283v-123h-445v720h433v-113h-271v-173h260v-117h-260v-194zM204 762l-87 120h105l58 -63l58 63h105l-87 -120h-152z" />
    <glyph glyph-name="Gbreve" unicode="&#x11e;" horiz-adv-x="646" 
d="M324 278v121h272q-6 -270 10 -369q-28 -5 -53 -13q-100 -33 -199 -33q-317 -4 -314 379q3 373 303 373q137 0 203 -70q57 -61 50 -158h-167q5 112 -88 111q-57 -1 -86 -41q-37 -49 -44 -171q-16 -308 158 -301q45 2 73 14q-7 65 -6 158h-112zM230 793q-37 34 -42 93h90
q7 -51 58 -51q52 0 58 51h90q-4 -58 -42 -93q-39 -36 -106 -36t-106 36z" />
    <glyph glyph-name="gbreve" unicode="&#x11f;" horiz-adv-x="637" 
d="M319 278v121h266q-5 -285 8 -369q-21 -4 -50 -13q-97 -33 -195 -33q-310 -4 -307 379q3 373 297 373q134 0 199 -70q55 -61 48 -158h-163q5 113 -86 111q-56 -1 -85 -41q-36 -49 -43 -171q-16 -308 155 -301q47 2 71 14q-7 44 -5 158h-110zM225 793q-37 34 -42 93h90
q7 -51 58 -51q52 0 58 51h90q-4 -58 -42 -93q-39 -36 -106 -36t-106 36z" />
    <glyph glyph-name="uni0122" unicode="&#x122;" horiz-adv-x="646" 
d="M324 278v121h272q-6 -270 10 -369q-28 -5 -53 -13q-100 -33 -199 -33q-317 -4 -314 379q3 373 303 373q137 0 203 -70q57 -61 50 -158h-167q5 112 -88 111q-57 -1 -86 -41q-37 -49 -44 -171q-16 -308 158 -301q45 2 73 14q-7 65 -6 158h-112zM413 -50l-59 -158h-96
l23 158h132z" />
    <glyph glyph-name="uni0123" unicode="&#x123;" horiz-adv-x="637" 
d="M319 278v121h266q-5 -285 8 -369q-21 -4 -50 -13q-97 -33 -195 -33q-310 -4 -307 379q3 373 297 373q134 0 199 -70q55 -61 48 -158h-163q5 113 -86 111q-56 -1 -85 -41q-36 -49 -43 -171q-16 -308 155 -301q47 2 71 14q-7 44 -5 158h-110zM402 -50l-59 -158h-96l23 158
h132z" />
    <glyph glyph-name="Imacron" unicode="&#x12a;" horiz-adv-x="330" 
d="M248 720v-720h-166v720h166zM25 762v92h282v-92h-282z" />
    <glyph glyph-name="imacron" unicode="&#x12b;" horiz-adv-x="330" 
d="M248 720v-720h-166v720h166zM24 762v92h282v-92h-282z" />
    <glyph glyph-name="Iogonek" unicode="&#x12e;" horiz-adv-x="330" 
d="M284 -196q-52 -25 -103 -25q-54 0 -89 28q-38 29 -38 76q0 71 78 117h-50v720h166v-720q-79 -43 -79 -86q0 -32 35 -32q20 0 50 12z" />
    <glyph glyph-name="iogonek" unicode="&#x12f;" horiz-adv-x="323" 
d="M278 -196q-52 -25 -103 -25q-54 0 -89 28q-38 29 -38 76q0 71 78 117h-46v720h162v-720q-79 -43 -79 -86q0 -32 35 -32q20 0 50 12z" />
    <glyph glyph-name="Idotaccent" unicode="&#x130;" horiz-adv-x="330" 
d="M248 720v-720h-166v720h166zM228 881v-119h-126v119h126z" />
    <glyph glyph-name="dotlessi" unicode="&#x131;" horiz-adv-x="330" 
d="M248 720v-720h-166v720h166z" />
    <glyph glyph-name="uni0136" unicode="&#x136;" horiz-adv-x="624" 
d="M228 0h-165v720h165v-310l204 310h185l-240 -334l257 -386h-193l-213 341v-341zM389 -50l-59 -158h-96l23 158h132z" />
    <glyph glyph-name="uni0137" unicode="&#x137;" horiz-adv-x="612" 
d="M224 0h-161v720h161v-309l196 309h182l-233 -334l249 -386h-190l-204 341v-341zM391 -50l-59 -158h-96l23 158h132z" />
    <glyph glyph-name="Lacute" unicode="&#x139;" horiz-adv-x="493" 
d="M229 123h259v-123h-425v720h166v-597zM154 882h163l-120 -120h-107z" />
    <glyph glyph-name="lacute" unicode="&#x13a;" horiz-adv-x="487" 
d="M227 123h254v-123h-417v720h163v-597zM155 882h163l-120 -120h-107z" />
    <glyph glyph-name="uni013B" unicode="&#x13b;" horiz-adv-x="493" 
d="M229 123h259v-123h-425v720h166v-597zM346 -50l-59 -158h-96l23 158h132z" />
    <glyph glyph-name="uni013C" unicode="&#x13c;" horiz-adv-x="487" 
d="M227 123h254v-123h-417v720h163v-597zM344 -50l-59 -158h-96l23 158h132z" />
    <glyph glyph-name="Lcaron" unicode="&#x13d;" horiz-adv-x="493" 
d="M229 123h259v-123h-425v720h166v-597zM422 762l-59 -178h-86l28 178h117z" />
    <glyph glyph-name="lcaron" unicode="&#x13e;" horiz-adv-x="487" 
d="M227 123h254v-123h-417v720h163v-597zM422 762l-59 -178h-86l28 178h117z" />
    <glyph glyph-name="Lslash" unicode="&#x141;" horiz-adv-x="520" 
d="M247 322v-199h259v-123h-425v234l-58 -30v97l58 30v389h166v-301l154 82v-97z" />
    <glyph glyph-name="lslash" unicode="&#x142;" horiz-adv-x="520" 
d="M247 322v-199h259v-123h-425v234l-58 -30v97l58 30v389h166v-301l154 82v-97z" />
    <glyph glyph-name="Nacute" unicode="&#x143;" horiz-adv-x="731" 
d="M510 720h156v-720h-232l-219 587l2 -38l5 -549h-158v720h243l211 -561l-2 40zM366 882h163l-120 -120h-107z" />
    <glyph glyph-name="nacute" unicode="&#x144;" horiz-adv-x="721" 
d="M503 720h152v-720h-226l-215 587l2 -38l5 -549h-155v720h238l207 -561l-2 40zM361 882h163l-120 -120h-107z" />
    <glyph glyph-name="uni0145" unicode="&#x145;" horiz-adv-x="731" 
d="M510 720h156v-720h-232l-219 587l2 -38l5 -549h-158v720h243l211 -561l-2 40zM463 -50l-59 -158h-96l23 158h132z" />
    <glyph glyph-name="uni0146" unicode="&#x146;" horiz-adv-x="721" 
d="M503 720h152v-720h-226l-215 587l2 -38l5 -549h-155v720h238l207 -561l-2 40zM431 -50l-59 -158h-96l23 158h132z" />
    <glyph glyph-name="Ncaron" unicode="&#x147;" horiz-adv-x="731" 
d="M510 720h156v-720h-232l-219 587l2 -38l5 -549h-158v720h243l211 -561l-2 40zM289 762l-87 120h105l58 -63l58 63h105l-87 -120h-152z" />
    <glyph glyph-name="ncaron" unicode="&#x148;" horiz-adv-x="721" 
d="M503 720h152v-720h-226l-215 587l2 -38l5 -549h-155v720h238l207 -561l-2 40zM283 762l-87 120h105l58 -63l58 63h105l-87 -120h-152z" />
    <glyph glyph-name="Omacron" unicode="&#x14c;" 
d="M631 364q0 -205 -79 -297q-72 -83 -217 -83q-144 0 -216 82q-82 93 -81 298q1 372 298 372q293 0 295 -372zM211 366q0 -137 30 -199t96 -62q63 0 93 62t30 199q0 253 -124 253q-125 0 -125 -253zM193 762v92h282v-92h-282z" />
    <glyph glyph-name="omacron" unicode="&#x14d;" horiz-adv-x="662" 
d="M621 364q0 -204 -78 -297q-70 -83 -212 -83q-141 0 -212 82q-80 93 -79 298q1 372 292 372q287 0 289 -372zM209 366q0 -137 30 -199q29 -62 94 -62q62 0 90 62q30 62 30 199q0 253 -121 253q-123 0 -123 -253zM191 762v92h282v-92h-282z" />
    <glyph glyph-name="Ohungarumlaut" unicode="&#x150;" 
d="M631 364q0 -205 -79 -297q-72 -83 -217 -83q-144 0 -216 82q-82 93 -81 298q1 372 298 372q293 0 295 -372zM211 366q0 -137 30 -199t96 -62q63 0 93 62t30 199q0 253 -124 253q-125 0 -125 -253zM279 881h127l-105 -119h-89zM440 881h127l-105 -119h-89z" />
    <glyph glyph-name="ohungarumlaut" unicode="&#x151;" horiz-adv-x="662" 
d="M621 364q0 -204 -78 -297q-70 -83 -212 -83q-141 0 -212 82q-80 93 -79 298q1 372 292 372q287 0 289 -372zM209 366q0 -137 30 -199q29 -62 94 -62q62 0 90 62q30 62 30 199q0 253 -121 253q-123 0 -123 -253zM277 881h127l-105 -119h-89zM438 881h127l-105 -119h-89z
" />
    <glyph glyph-name="OE" unicode="&#x152;" horiz-adv-x="883" 
d="M836 720v-111h-276v-175h265v-117h-265v-194h289v-123h-437q-160 0 -255 73q-120 91 -119 288q0 173 110 270q102 89 265 89h423zM396 606q-72 0 -122 -43q-72 -62 -72 -200q0 -126 64 -189q52 -52 130 -52v484z" />
    <glyph glyph-name="oe" unicode="&#x153;" horiz-adv-x="883" 
d="M836 720v-111h-276v-175h265v-117h-265v-194h289v-123h-437q-160 0 -255 73q-120 91 -119 288q0 173 110 270q102 89 265 89h423zM396 606q-72 0 -122 -43q-72 -62 -72 -200q0 -126 64 -189q52 -52 130 -52v484z" />
    <glyph glyph-name="Racute" unicode="&#x154;" horiz-adv-x="646" 
d="M229 609v-206h84q112 0 112 103t-106 103h-90zM303 286h-74v-286h-166v720h315q96 0 154 -44q64 -49 64 -140q0 -147 -150 -179q136 -12 144 -178q7 -152 26 -179h-177q-20 19 -20 179q0 107 -116 107zM303 882h163l-120 -120h-107z" />
    <glyph glyph-name="racute" unicode="&#x155;" horiz-adv-x="641" 
d="M227 609v-206h83q109 0 109 103t-104 103h-88zM300 286h-73v-286h-162v720h308q95 0 152 -44q62 -49 62 -140q0 -146 -149 -179q135 -12 143 -178q7 -151 25 -179h-172q-20 19 -20 179q0 107 -114 107zM302 882h163l-120 -120h-107z" />
    <glyph glyph-name="uni0156" unicode="&#x156;" horiz-adv-x="646" 
d="M229 609v-206h84q112 0 112 103t-106 103h-90zM303 286h-74v-286h-166v720h315q96 0 154 -44q64 -49 64 -140q0 -147 -150 -179q136 -12 144 -178q7 -152 26 -179h-177q-20 19 -20 179q0 107 -116 107zM400 -50l-59 -158h-96l23 158h132z" />
    <glyph glyph-name="uni0157" unicode="&#x157;" horiz-adv-x="641" 
d="M227 609v-206h83q109 0 109 103t-104 103h-88zM300 286h-73v-286h-162v720h308q95 0 152 -44q62 -49 62 -140q0 -146 -149 -179q135 -12 143 -178q7 -151 25 -179h-172q-20 19 -20 179q0 107 -114 107zM401 -50l-59 -158h-96l23 158h132z" />
    <glyph glyph-name="Rcaron" unicode="&#x158;" horiz-adv-x="646" 
d="M229 609v-206h84q112 0 112 103t-106 103h-90zM303 286h-74v-286h-166v720h315q96 0 154 -44q64 -49 64 -140q0 -147 -150 -179q136 -12 144 -178q7 -152 26 -179h-177q-20 19 -20 179q0 107 -116 107zM236 762l-87 120h105l58 -63l58 63h105l-87 -120h-152z" />
    <glyph glyph-name="rcaron" unicode="&#x159;" horiz-adv-x="641" 
d="M227 609v-206h83q109 0 109 103t-104 103h-88zM300 286h-73v-286h-162v720h308q95 0 152 -44q62 -49 62 -140q0 -146 -149 -179q135 -12 143 -178q7 -151 25 -179h-172q-20 19 -20 179q0 107 -114 107zM226 762l-87 120h105l58 -63l58 63h105l-87 -120h-152z" />
    <glyph glyph-name="Sacute" unicode="&#x15a;" horiz-adv-x="601" 
d="M449 387q134 -60 132 -186q0 -99 -74 -157q-73 -59 -197 -59q-139 0 -212 60q-70 59 -62 160l2 25l170 1l-1 -19q-3 -49 26 -76q27 -26 74 -26q43 0 69 22t26 57q0 55 -83 94l-140 63q-71 33 -101 68q-38 45 -38 118q1 88 70 145q72 58 189 58q125 0 193 -51
q70 -52 66 -146l-1 -23l-169 -1l1 14q3 43 -24 67q-25 21 -67 21q-39 0 -63 -19q-26 -20 -26 -53q0 -49 86 -88zM309 882h163l-120 -120h-107z" />
    <glyph glyph-name="sacute" unicode="&#x15b;" horiz-adv-x="597" 
d="M442 387q130 -59 129 -186q-1 -99 -72 -157q-72 -59 -193 -59q-137 0 -208 60q-69 58 -61 160l2 25l167 1l-1 -19q-3 -49 25 -76q26 -26 73 -26q41 0 67 22t26 57q0 55 -81 94l-138 63q-70 33 -99 68q-38 45 -37 118q0 88 68 145q70 58 186 58q122 0 189 -51
q68 -52 65 -146l-1 -23l-166 -1l1 14q2 43 -24 67q-25 21 -65 21q-38 0 -62 -19q-25 -20 -25 -53q-1 -48 84 -88zM304 882h163l-120 -120h-107z" />
    <glyph glyph-name="Scedilla" unicode="&#x15e;" horiz-adv-x="601" 
d="M218 -149q38 -19 68 -19q53 0 53 38q0 33 -42 33q-17 0 -39 -9l-22 26l34 67q-121 8 -182 67q-60 57 -52 151l2 25l170 1l-1 -19q-3 -49 25 -76q27 -26 75 -26q42 0 68 22q27 22 27 57q0 55 -83 94l-140 63q-71 33 -101 68q-39 45 -38 118q0 88 69 145q72 58 190 58
q124 0 192 -51q70 -52 67 -146l-1 -23l-169 -1l1 14q2 43 -25 67q-25 21 -66 21q-39 0 -64 -19q-25 -20 -25 -53q0 -49 86 -88l154 -69q133 -60 132 -186q-1 -96 -70 -154q-70 -58 -187 -62l-26 -45q18 5 35 5q34 0 57 -18q25 -20 25 -54q0 -49 -45 -72q-33 -18 -78 -18
q-55 0 -94 21z" />
    <glyph glyph-name="scedilla" unicode="&#x15f;" horiz-adv-x="597" 
d="M213 -149q38 -19 68 -19q53 0 53 38q0 33 -42 33q-17 0 -39 -9l-22 26l35 67q-118 9 -178 67q-59 58 -51 151l2 25l167 1l-1 -19q-3 -49 25 -76q26 -26 73 -26q41 0 67 22t26 57q0 55 -81 94l-138 63q-70 33 -99 68q-38 45 -37 118q0 88 68 145q70 58 186 58
q122 0 189 -51q68 -52 65 -146l-1 -23l-166 -1l1 14q2 43 -24 67q-25 21 -65 21q-39 0 -62 -19q-25 -20 -25 -53q-1 -48 84 -88l151 -69q130 -59 129 -186q-1 -97 -69 -154q-68 -58 -183 -62l-26 -45q18 5 35 5q34 0 57 -18q25 -20 25 -54q0 -49 -45 -72q-33 -18 -78 -18
q-55 0 -94 21z" />
    <glyph glyph-name="Scaron" unicode="&#x160;" horiz-adv-x="601" 
d="M449 387q134 -60 132 -186q0 -99 -74 -157q-73 -59 -197 -59q-139 0 -212 60q-70 59 -62 160l2 25l170 1l-1 -19q-3 -49 26 -76q27 -26 74 -26q43 0 69 22t26 57q0 55 -83 94l-140 63q-71 33 -101 68q-38 45 -38 118q1 88 70 145q72 58 189 58q125 0 193 -51
q70 -52 66 -146l-1 -23l-169 -1l1 14q3 43 -24 67q-25 21 -67 21q-39 0 -63 -19q-26 -20 -26 -53q0 -49 86 -88zM225 762l-87 120h105l58 -63l58 63h105l-87 -120h-152z" />
    <glyph glyph-name="scaron" unicode="&#x161;" horiz-adv-x="597" 
d="M442 387q130 -59 129 -186q-1 -99 -72 -157q-72 -59 -193 -59q-137 0 -208 60q-69 58 -61 160l2 25l167 1l-1 -19q-3 -49 25 -76q26 -26 73 -26q41 0 67 22t26 57q0 55 -81 94l-138 63q-70 33 -99 68q-38 45 -37 118q0 88 68 145q70 58 186 58q122 0 189 -51
q68 -52 65 -146l-1 -23l-166 -1l1 14q2 43 -24 67q-25 21 -65 21q-38 0 -62 -19q-25 -20 -25 -53q-1 -48 84 -88zM219 762l-87 120h105l58 -63l58 63h105l-87 -120h-152z" />
    <glyph glyph-name="uni0162" unicode="&#x162;" horiz-adv-x="567" 
d="M206 601h-206v119h567v-119h-195v-601h-55l-35 -60q18 5 35 5q34 0 57 -18q25 -20 25 -54q0 -49 -45 -72q-33 -18 -78 -18q-55 0 -94 21l20 47q38 -19 68 -19q53 0 53 38q0 33 -42 33q-16 0 -39 -9l-22 26l42 80h-56v601z" />
    <glyph glyph-name="uni0163" unicode="&#x163;" horiz-adv-x="540" 
d="M192 601h-192v119h540v-119h-186v-601h-52l-35 -60q18 5 35 5q34 0 57 -18q25 -20 25 -54q0 -49 -45 -72q-33 -18 -78 -18q-55 0 -94 21l20 47q38 -19 68 -19q53 0 53 38q0 33 -42 33q-16 0 -39 -9l-22 26l42 80h-55v601z" />
    <glyph glyph-name="Tcaron" unicode="&#x164;" horiz-adv-x="567" 
d="M206 601h-206v119h567v-119h-195v-601h-166v601zM208 762l-87 120h105l58 -63l58 63h105l-87 -120h-152z" />
    <glyph glyph-name="tcaron" unicode="&#x165;" horiz-adv-x="540" 
d="M192 601h-192v119h540v-119h-186v-601h-162v601zM197 762l-87 120h105l58 -63l58 63h105l-87 -120h-152z" />
    <glyph glyph-name="Umacron" unicode="&#x16a;" horiz-adv-x="654" 
d="M56 720h166v-504q0 -47 27 -76q29 -29 78 -29t77 30q27 28 27 75v504h167v-480q0 -121 -69 -188q-71 -68 -202 -68q-271 0 -271 256v480zM185 762v92h282v-92h-282z" />
    <glyph glyph-name="umacron" unicode="&#x16b;" horiz-adv-x="645" 
d="M56 720h163v-504q0 -47 27 -76t76 -29q48 0 76 30q26 28 26 75v504h164v-480q0 -121 -68 -188q-69 -68 -198 -68q-266 0 -266 256v480zM181 762v92h282v-92h-282z" />
    <glyph glyph-name="Uring" unicode="&#x16e;" horiz-adv-x="654" 
d="M56 720h166v-504q0 -47 27 -76q29 -29 78 -29t77 30q27 28 27 75v504h167v-480q0 -121 -69 -188q-71 -68 -202 -68q-271 0 -271 256v480zM258 895q28 26 69 26t69 -26t28 -66t-28 -66t-69 -26t-69 26t-28 66t28 66zM298 799q12 -12 29 -12t29 12q13 12 13 30t-13 30
q-12 12 -29 12t-29 -12q-13 -12 -13 -30t13 -30z" />
    <glyph glyph-name="uring" unicode="&#x16f;" horiz-adv-x="645" 
d="M56 720h163v-504q0 -47 27 -76t76 -29q48 0 76 30q26 28 26 75v504h164v-480q0 -121 -68 -188q-69 -68 -198 -68q-266 0 -266 256v480zM253 895q28 26 69 26t69 -26t28 -66t-28 -66t-69 -26t-69 26t-28 66t28 66zM293 799q12 -12 29 -12t29 12q13 12 13 30t-13 30
q-12 12 -29 12t-29 -12q-13 -12 -13 -30t13 -30z" />
    <glyph glyph-name="Uhungarumlaut" unicode="&#x170;" horiz-adv-x="654" 
d="M56 720h166v-504q0 -47 27 -76q29 -29 78 -29t77 30q27 28 27 75v504h167v-480q0 -121 -69 -188q-71 -68 -202 -68q-271 0 -271 256v480zM256 881h127l-105 -119h-89zM417 881h127l-105 -119h-89z" />
    <glyph glyph-name="uhungarumlaut" unicode="&#x171;" horiz-adv-x="645" 
d="M56 720h163v-504q0 -47 27 -76t76 -29q48 0 76 30q26 28 26 75v504h164v-480q0 -121 -68 -188q-69 -68 -198 -68q-266 0 -266 256v480zM251 881h127l-105 -119h-89zM412 881h127l-105 -119h-89z" />
    <glyph glyph-name="Uogonek" unicode="&#x172;" horiz-adv-x="654" 
d="M56 720h166v-504q0 -47 27 -76q29 -29 78 -29t77 30q27 28 27 75v504h167v-480q0 -191 -160 -240q-73 -39 -73 -86q0 -33 35 -33q24 0 50 13l28 -92q-46 -23 -101 -23q-52 0 -88 27q-38 28 -38 74q0 57 62 104q-257 7 -257 256v480z" />
    <glyph glyph-name="uogonek" unicode="&#x173;" horiz-adv-x="645" 
d="M56 720h163v-504q0 -47 27 -76t76 -29q48 0 76 30q26 28 26 75v504h164v-480q0 -190 -156 -240q-68 -37 -68 -86q0 -32 35 -32q20 0 50 12l28 -92q-53 -23 -101 -23q-55 0 -90 30q-37 32 -37 84q0 50 55 91q-248 8 -248 256v480z" />
    <glyph glyph-name="Ydieresis" unicode="&#x178;" horiz-adv-x="621" 
d="M616 720l-223 -470v-250h-166v250l-222 470h179l116 -312l10 -40h2l10 40l115 312h179zM271 877v-115h-117v115h117zM466 877v-115h-116v115h116z" />
    <glyph glyph-name="Zacute" unicode="&#x179;" horiz-adv-x="568" 
d="M34 720h505v-125l-335 -471l340 2v-126h-517v132l335 468l-328 -2v122zM287 882h163l-120 -120h-107z" />
    <glyph glyph-name="zacute" unicode="&#x17a;" horiz-adv-x="545" 
d="M36 720h478v-125l-319 -471l326 2v-126h-495v132l318 468l-308 -2v122zM277 882h163l-120 -120h-107z" />
    <glyph glyph-name="Zdotaccent" unicode="&#x17b;" horiz-adv-x="568" 
d="M34 720h505v-125l-335 -471l340 2v-126h-517v132l335 468l-328 -2v122zM357 881v-119h-126v119h126z" />
    <glyph glyph-name="zdotaccent" unicode="&#x17c;" horiz-adv-x="545" 
d="M36 720h478v-125l-319 -471l326 2v-126h-495v132l318 468l-308 -2v122zM341 881v-119h-126v119h126z" />
    <glyph glyph-name="Zcaron" unicode="&#x17d;" horiz-adv-x="568" 
d="M34 720h505v-125l-335 -471l340 2v-126h-517v132l335 468l-328 -2v122zM216 762l-87 120h105l58 -63l58 63h105l-87 -120h-152z" />
    <glyph glyph-name="zcaron" unicode="&#x17e;" horiz-adv-x="545" 
d="M36 720h478v-125l-319 -471l326 2v-126h-495v132l318 468l-308 -2v122zM208 762l-87 120h105l58 -63l58 63h105l-87 -120h-152z" />
    <glyph glyph-name="florin" unicode="&#x192;" horiz-adv-x="0" 
 />
    <glyph glyph-name="uni0218" unicode="&#x218;" horiz-adv-x="601" 
d="M449 387q134 -60 132 -186q0 -99 -74 -157q-73 -59 -197 -59q-139 0 -212 60q-70 59 -62 160l2 25l170 1l-1 -19q-3 -49 26 -76q27 -26 74 -26q43 0 69 22t26 57q0 55 -83 94l-140 63q-71 33 -101 68q-38 45 -38 118q1 88 70 145q72 58 189 58q125 0 193 -51
q70 -52 66 -146l-1 -23l-169 -1l1 14q3 43 -24 67q-25 21 -67 21q-39 0 -63 -19q-26 -20 -26 -53q0 -49 86 -88zM365 -50l-59 -158h-96l23 158h132z" />
    <glyph glyph-name="uni0219" unicode="&#x219;" horiz-adv-x="597" 
d="M442 387q130 -59 129 -186q-1 -99 -72 -157q-72 -59 -193 -59q-137 0 -208 60q-69 58 -61 160l2 25l167 1l-1 -19q-3 -49 25 -76q26 -26 73 -26q41 0 67 22t26 57q0 55 -81 94l-138 63q-70 33 -99 68q-38 45 -37 118q0 88 68 145q70 58 186 58q122 0 189 -51
q68 -52 65 -146l-1 -23l-166 -1l1 14q2 43 -24 67q-25 21 -65 21q-38 0 -62 -19q-25 -20 -25 -53q-1 -48 84 -88zM365 -50l-59 -158h-96l23 158h132z" />
    <glyph glyph-name="uni021A" unicode="&#x21a;" horiz-adv-x="567" 
d="M206 601h-206v119h567v-119h-195v-601h-166v601zM356 -50l-59 -158h-96l23 158h132z" />
    <glyph glyph-name="uni021B" unicode="&#x21b;" horiz-adv-x="540" 
d="M192 601h-192v119h540v-119h-186v-601h-162v601zM339 -50l-59 -158h-96l23 158h132z" />
    <glyph glyph-name="circumflex" unicode="&#x2c6;" horiz-adv-x="554" 
d="M226 762h-105l88 119h151l85 -119h-105l-56 62z" />
    <glyph glyph-name="caron" unicode="&#x2c7;" horiz-adv-x="558" 
d="M208 762l-87 120h105l58 -63l58 63h105l-87 -120h-152z" />
    <glyph glyph-name="breve" unicode="&#x2d8;" horiz-adv-x="586" 
d="M185 793q-36 34 -41 93h90q7 -51 58 -51t58 51h90q-5 -58 -42 -93q-40 -36 -106 -36q-67 0 -107 36z" />
    <glyph glyph-name="dotaccent" unicode="&#x2d9;" horiz-adv-x="551" 
d="M347 881v-119h-126v119h126z" />
    <glyph glyph-name="ring" unicode="&#x2da;" horiz-adv-x="551" 
d="M215 895q28 26 69 26t69 -26t28 -66t-28 -66t-69 -26t-69 26t-28 66t28 66zM255 799q12 -12 29 -12t29 12q13 12 13 30t-13 30q-12 12 -29 12t-29 -12q-13 -12 -13 -30t13 -30z" />
    <glyph glyph-name="ogonek" unicode="&#x2db;" horiz-adv-x="293" 
d="M246 -196q-52 -25 -103 -25q-54 0 -89 28q-38 29 -38 76q0 71 78 117h116q-79 -43 -79 -86q0 -32 35 -32q20 0 50 12z" />
    <glyph glyph-name="tilde" unicode="&#x2dc;" horiz-adv-x="580" 
d="M120 765q5 57 37 90q30 33 74 33q25 0 70 -19q45 -20 62 -20q30 0 36 36h58q-3 -50 -29 -84q-29 -39 -76 -39q-28 0 -71 21t-57 21q-33 0 -45 -39h-59z" />
    <glyph glyph-name="hungarumlaut" unicode="&#x2dd;" horiz-adv-x="531" 
d="M176 881h127l-105 -119h-89zM337 881h127l-105 -119h-89z" />
    <glyph glyph-name="endash" unicode="&#x2013;" horiz-adv-x="551" 
d="M511 399v-117h-471v117h471z" />
    <glyph glyph-name="emdash" unicode="&#x2014;" horiz-adv-x="897" 
d="M897 399v-117h-897v117h897z" />
    <glyph glyph-name="quoteleft" unicode="&#x2018;" horiz-adv-x="248" 
d="M23 497l88 223h109l-35 -223h-162z" />
    <glyph glyph-name="quoteright" unicode="&#x2019;" horiz-adv-x="248" 
d="M226 720l-88 -223h-109l35 223h162z" />
    <glyph glyph-name="quotesinglbase" unicode="&#x201a;" horiz-adv-x="241" 
d="M215 155l-88 -223h-110l35 223h163z" />
    <glyph glyph-name="quotedblleft" unicode="&#x201c;" horiz-adv-x="433" 
d="M216 497l88 223h94l-35 -223h-147zM30 497l88 223h95l-35 -223h-148z" />
    <glyph glyph-name="quotedblright" unicode="&#x201d;" horiz-adv-x="433" 
d="M219 720l-88 -223h-94l35 223h147zM405 720l-88 -223h-95l35 223h148z" />
    <glyph glyph-name="quotedblbase" unicode="&#x201e;" horiz-adv-x="424" 
d="M209 155l-88 -223h-94l35 223h147zM395 155l-88 -223h-95l35 223h148z" />
    <glyph glyph-name="dagger" unicode="&#x2020;" horiz-adv-x="399" 
d="M49 551v85h102v107h97v-107h101v-85h-101v-230h-97v230h-102z" />
    <glyph glyph-name="daggerdbl" unicode="&#x2021;" horiz-adv-x="399" 
d="M151 551h-102v85h102v107h97v-107h101v-85h-101v-230h101v-85h-101v-107h-97v107h-102v85h102v230z" />
    <glyph glyph-name="bullet" unicode="&#x2022;" horiz-adv-x="411" 
d="M338 491q56 -55 56 -134t-56 -134q-55 -56 -134 -56t-134 56q-56 55 -56 134t56 134t134 55t134 -55z" />
    <glyph glyph-name="ellipsis" unicode="&#x2026;" horiz-adv-x="897" 
d="M178 153v-153h-158v153h158zM527 153v-153h-158v153h158zM877 153v-153h-158v153h158z" />
    <glyph glyph-name="perthousand" unicode="&#x2030;" horiz-adv-x="1033" 
d="M598 736l-399 -736h-94l400 736h93zM80 692q41 44 109 44t110 -45q41 -44 41 -118q0 -79 -40 -124q-41 -46 -111 -46q-71 0 -112 46q-40 46 -40 124q0 74 43 119zM189 670q-53 0 -53 -98t53 -98t53 98t-53 98zM398 273q41 44 109 44t110 -45q41 -44 41 -118
q0 -79 -40 -124q-41 -46 -111 -46q-71 0 -112 46q-40 46 -40 124q0 74 43 119zM507 251q-53 0 -53 -98t53 -98t53 98t-53 98zM737 273q41 44 109 44t110 -45q41 -44 41 -118q0 -79 -40 -124q-41 -46 -111 -46q-71 0 -112 46q-40 46 -40 124q0 74 43 119zM846 251
q-53 0 -53 -98t53 -98t53 98t-53 98z" />
    <glyph glyph-name="guilsinglleft" unicode="&#x2039;" horiz-adv-x="335" 
d="M29 278l130 175h142l-140 -175l140 -175h-142z" />
    <glyph glyph-name="guilsinglright" unicode="&#x203a;" horiz-adv-x="335" 
d="M171 103h-142l140 175l-140 175h142l130 -175z" />
    <glyph glyph-name="fraction" unicode="&#x2044;" horiz-adv-x="609" 
d="M569 736l-432 -752h-97l433 752h96z" />
    <glyph glyph-name="Euro" unicode="&#x20ac;" horiz-adv-x="643" 
d="M262 253q6 -78 29 -112q23 -33 71 -33q42 0 68 29q26 32 25 88h168q-19 -241 -261 -241q-120 0 -184 63q-68 65 -85 206h-55v71h50q-1 14 -1 37q0 27 1 38h-50v71h55q39 266 274 266q237 0 255 -239h-169q3 116 -90 116q-86 0 -100 -143h125v-71h-131q-1 -20 -1 -36
q0 -17 1 -39h131v-71h-126z" />
    <glyph glyph-name="trademark" unicode="&#x2122;" horiz-adv-x="836" 
d="M785 720v-370h-91l2 303l-6 -24l-81 -279h-112l-81 279l-6 24l2 -303h-90v370h153l79 -292l78 292h153zM104 643h-90v77h281v-77h-91v-293h-100v293z" />
    <glyph glyph-name="arrowleft" unicode="&#x2190;" horiz-adv-x="897" 
d="M0 359l343 361h215l-284 -284l623 2v-159l-622 2l279 -281h-212z" />
    <glyph glyph-name="arrowright" unicode="&#x2192;" horiz-adv-x="897" 
d="M555 0h-212l279 281l-622 -2v159l623 -2l-284 284h215l343 -361z" />
    <glyph glyph-name="minus" unicode="&#x2212;" horiz-adv-x="499" 
d="M459 399v-113h-419v113h419z" />
    <glyph glyph-name="uniFB01" unicode="&#xfb01;" horiz-adv-x="840" 
d="M67 0v720h426v-113h-263v-173h254v-117h-254v-317h-163zM746 720v-720h-162v720h162z" />
    <glyph glyph-name="uniFB02" unicode="&#xfb02;" horiz-adv-x="1012" 
d="M64 0v720h426v-113h-263v-173h254v-117h-254v-317h-163zM741 123h254v-123h-417v720h163v-597z" />
    <glyph glyph-name="glyph313" horiz-adv-x="260" 
d="M211 -50l-59 -158h-96l23 158h132z" />
    <glyph glyph-name="glyph314" horiz-adv-x="260" 
d="M212 762l-59 -178h-86l28 178h117z" />
    <glyph glyph-name="glyph315" horiz-adv-x="260" 
d="M211 -50l-59 -158h-96l23 158h132z" />
    <glyph glyph-name="glyph316" horiz-adv-x="806" 
d="M747 626q0 -14 -10 -24t-24 -10h-211q-14 0 -24 10t-10 24v22q0 14 10 24t24 10h211q13 0 23.5 -10t10.5 -24v-22zM747 437q0 -14 -10 -24t-24 -10h-211q-14 0 -24 10t-10 24v22q0 14 10 24t24 10h211q14 0 24 -10t10 -24v-22zM339 437q0 -14 -10 -24t-24 -10h-22
q-14 0 -24 10t-10 24v211q0 14 10 24t24 10h22q14 0 24 -10t10 -24v-211zM747 29q0 -14 -10 -24t-24 -10h-22q-14 0 -24 10t-10 24v211q0 14 10 24t24 10h22q14 0 24 -10t10 -24v-211zM150 437q0 -14 -10 -24t-24 -10h-22q-14 0 -24 10t-10 24v211q0 14 10 24t24 10h22
q14 0 24 -10t10 -24v-211zM558 29q0 -14 -10 -24t-24 -10h-22q-14 0 -24 10t-10 24v211q0 14 10 24t24 10h22q14 0 24 -10t10 -24v-211zM339 218q0 -14 -10 -24t-24 -10h-211q-14 0 -24 10t-10 24v22q0 14 10 24t24 10h211q14 0 24 -10t10 -24v-22zM339 29q0 -14 -10 -24
t-24 -10h-211q-14 0 -24 10t-10 24v22q0 14 10 24t24 10h211q14 0 24 -10t10 -24v-22z" />
    </font>
</defs>
</svg>
